<?xml version="1.0" standalone="no"?>
<!DOCTYPE svg PUBLIC "-//W3C//DTD SVG 1.1//EN" "http://www.w3.org/Graphics/SVG/1.1/DTD/svg11.dtd" >
<svg xmlns="http://www.w3.org/2000/svg">
<metadata></metadata>
<defs>
<font id="nexa_lightregular" horiz-adv-x="1245" >
<font-face units-per-em="2048" ascent="1536" descent="-512" />
<missing-glyph horiz-adv-x="563" />
<glyph horiz-adv-x="2048" />
<glyph horiz-adv-x="2048" />
<glyph unicode="&#xd;" horiz-adv-x="2048" />
<glyph unicode=" "  horiz-adv-x="563" />
<glyph unicode="&#x09;" horiz-adv-x="563" />
<glyph unicode="&#xa0;" horiz-adv-x="563" />
<glyph unicode="!" horiz-adv-x="399" d="M98 72q0 50 40.5 70.5t81 0t40.5 -70.5t-40.5 -70.5t-81 0t-40.5 70.5zM123 289v1145h104v-1145h-104z" />
<glyph unicode="&#x22;" horiz-adv-x="653" d="M111 918v524h92v-524h-92zM397 918v524h90v-524h-90z" />
<glyph unicode="#" horiz-adv-x="1259" d="M59 350v82h183l149 580h-174v78h193l84 344h94l-84 -344h411l86 344h95l-86 -344h186v-78h-205l-147 -580h194v-82h-213l-86 -350h-94l86 350h-412l-86 -350h-94l86 350h-166zM336 432h414l147 580h-412z" />
<glyph unicode="$" horiz-adv-x="1296" d="M41 274l98 50q31 -60 87 -105.5t124.5 -70t138 -36.5t138.5 -12q57 0 115.5 8t121 28.5t110 51.5t78.5 81t31 112q0 35 -8.5 65.5t-22 54.5t-39 45.5t-47.5 36.5t-60.5 29.5t-65.5 23.5t-74 20t-75 16.5t-79 15.5q-213 41 -301 76q-175 69 -216 206q-12 40 -13 87 q-2 77 28 141t79.5 107t116 74t135.5 46t141 19v205h92v-205q153 -8 282.5 -69t194.5 -179l-96 -53q-54 100 -174.5 148t-253.5 50q-69 0 -140.5 -15t-140.5 -45.5t-112 -87.5t-41 -132q1 -38 13.5 -69.5t32 -55t53 -43.5t66 -33.5t82.5 -27t90 -22t101 -19.5 q214 -41 301 -73q189 -68 240 -207q22 -59 22 -132q-1 -97 -49 -172t-126.5 -119t-166 -67t-180.5 -27v-199h-90v199q-174 7 -323 76t-218 204z" />
<glyph unicode="%" horiz-adv-x="1478" d="M42 1142q0 57 20 111t57.5 96.5t98.5 68.5t136 26q76 0 137 -26t98.5 -68.5t58 -96.5t20.5 -111t-20.5 -111t-58 -96.5t-98.5 -68.5t-137 -26q-75 0 -136 26t-98.5 68.5t-57.5 96.5t-20 111zM139.5 1188.5q-11.5 -45.5 0.5 -91t36.5 -83t72 -61t107.5 -23.5 q59 0 105.5 23.5t70 61t34.5 83t-0.5 91t-35.5 83t-70.5 61t-105.5 23.5q-60 0 -107.5 -23.5t-71.5 -61t-35.5 -83zM188 0h115l911 1440l-112 -2zM741 290q0 57 20 111t57.5 96.5t98.5 68.5t136 26q76 0 137 -26t98.5 -68.5t58 -96.5t20.5 -111t-20.5 -111t-58 -96.5 t-98.5 -68.5t-137 -26q-75 0 -136 26t-98.5 68.5t-57.5 96.5t-20 111zM840 337.5q-11 -46.5 0.5 -93t36 -84.5t71.5 -62t107 -24t107 24t71 62t35 84.5t-0.5 93t-36 84.5t-71.5 62t-107 24t-107 -24t-71 -62t-35 -84.5z" />
<glyph unicode="&#x26;" horiz-adv-x="1474" d="M156 381q0 125 85 218t203 132q-116 35 -190 124t-74 206q0 170 135 275.5t375 105.5q75 0 136.5 -8.5t124 -32t105 -62t69 -103t26.5 -149.5h-96q0 65 -20.5 113.5t-53.5 77t-82.5 45.5t-99 23t-111.5 6q-197 0 -301 -80.5t-102 -208.5q1 -63 27 -113.5t67.5 -82.5 t96 -53t108 -29.5t108.5 -8.5h608v-88h-131v-313q0 -62 8 -111t27.5 -91t55.5 -65t88 -22v-86q-86 -12 -151 39t-89 143q-37 -61 -86.5 -102.5t-107 -61.5t-111 -28t-117.5 -8q-257 0 -393.5 106t-136.5 293zM260 381q0 -142 106.5 -222.5t317.5 -80.5q44 0 86.5 5.5 t88.5 18t84.5 35.5t69.5 54.5t48.5 78.5t17.5 105v313h-393q-102 0 -185.5 -27t-134.5 -71.5t-78.5 -98.5t-27.5 -110z" />
<glyph unicode="'" horiz-adv-x="428" d="M150 918v524h90v-524h-90z" />
<glyph unicode="(" horiz-adv-x="788" d="M182 663.5q0 183.5 48.5 350t151.5 314t249 241.5l53 -78q-126 -88 -216 -220t-134.5 -281t-46 -313t40 -315.5t133 -289.5t223.5 -234l-53 -80q-146 94 -249 241.5t-151.5 314t-48.5 350z" />
<glyph unicode=")" horiz-adv-x="714" d="M37 -162q132 96 223.5 234t133 289.5t40 315.5t-46 313t-134.5 281t-216 220l53 78q146 -94 249 -241.5t151.5 -314t48.5 -350t-48.5 -350t-151.5 -314t-249 -241.5z" />
<glyph unicode="*" horiz-adv-x="602" d="M59 1249l23 74l162 -53l-4 166h84l-5 -166l175 51l22 -74l-176 -45l113 -143l-68 -49l-104 149l-109 -149l-68 47l117 145z" />
<glyph unicode="+" horiz-adv-x="1030" d="M100 651v99h359v352h96v-352h358v-99h-358v-362h-96v362h-359z" />
<glyph unicode="," horiz-adv-x="405" d="M78 -182l63 170q-49 18 -49 73q0 50 40.5 70.5t81 0t40.5 -70.5q0 -16 -6 -34l-82 -209h-88z" />
<glyph unicode="-" horiz-adv-x="978" d="M119 592v106h717v-106h-717z" />
<glyph unicode="." horiz-adv-x="391" d="M74 61q0 50 40.5 70.5t81 0t40.5 -70.5t-40.5 -70.5t-81 0t-40.5 70.5z" />
<glyph unicode="/" horiz-adv-x="892" d="M-25 -168l764 1722h111l-766 -1722h-109z" />
<glyph unicode="0" horiz-adv-x="1300" d="M72 547v342q0 136 47 246t124.5 177.5t176 104t201 36.5t201 -37t176 -104.5t124.5 -177t47 -245.5v-342q0 -136 -47 -245.5t-124.5 -177t-176 -104.5t-201 -37t-201 36.5t-176 104t-124.5 177.5t-47 246zM180 547q0 -111 38 -201t100 -145t141 -84.5t161.5 -29.5 t161.5 30t141 85t100 144.5t38 200.5v342q0 110 -38 199.5t-100 144.5t-141 85t-161.5 30t-161.5 -30t-141 -84.5t-100 -144t-38 -200.5v-342z" />
<glyph unicode="1" horiz-adv-x="671" d="M8 0v96h242v1239h-242v99h352v-1338h242v-96h-594z" />
<glyph unicode="2" horiz-adv-x="1353" d="M86 0v324q0 92 33 163t86.5 114.5t128 72t149.5 39t160 10.5q60 0 118.5 9t120 31.5t107.5 56.5t75.5 89t29.5 125q0 73 -28.5 130t-73.5 92.5t-105.5 58.5t-120.5 32t-123 9q-61 0 -119 -8.5t-117.5 -30t-103.5 -54.5t-72 -87t-28 -123h-109q0 88 32.5 158t86 114.5 t126.5 73.5t147.5 41t156.5 12t158.5 -13.5t149 -45t126 -78.5t86 -119t33.5 -162q0 -105 -49.5 -187t-130.5 -129t-175 -71t-194 -24q-452 -4 -452 -297v-220h987v-106h-1096z" />
<glyph unicode="3" horiz-adv-x="1310" d="M66 365h106q0 -54 16.5 -97t42.5 -71.5t65 -50t77 -33t86.5 -18.5t86.5 -9t83 -2q215 0 329.5 85t114.5 214q0 122 -119 214.5t-327 92.5h-238v92h232q103 0 186.5 26t135 68.5t79.5 93t29 103.5q2 120 -110 203.5t-316 83.5q-432 0 -432 -277h-105q1 86 34 152 t85.5 106.5t124.5 66t142.5 35t148.5 9.5q247 0 386.5 -106.5t141.5 -272.5q0 -120 -87.5 -215t-215.5 -119q134 -26 232 -125t98 -227q0 -176 -145 -290.5t-406 -114.5q-81 0 -154.5 9.5t-149.5 36t-131.5 68t-90.5 110.5t-35 159z" />
<glyph unicode="4" horiz-adv-x="1308" d="M27 457l829 977h182v-1000h181v-110h-181v-324h-110v324h-879zM145 434h783v918z" />
<glyph unicode="5" horiz-adv-x="1304" d="M76 395h110q0 -72 28.5 -126.5t72 -85.5t105 -50.5t118.5 -26t121 -6.5q221 0 333.5 92t112.5 242q0 69 -19 127t-62.5 108.5t-125.5 79.5t-196 29h-563v656h997v-99h-895v-458h461q113 0 202.5 -24.5t147 -66t95.5 -99t53.5 -119.5t15.5 -132q0 -72 -21 -137t-65.5 -122 t-109.5 -98t-157.5 -65t-203.5 -24q-83 0 -158 11t-149 40t-127.5 73.5t-86.5 116.5t-34 164z" />
<glyph unicode="6" horiz-adv-x="1351" d="M100 430v627q0 98 46.5 175.5t124.5 125t173.5 72t200.5 24.5q147 0 265.5 -39t195.5 -122.5t86 -200.5h-111q-9 125 -130.5 194.5t-305.5 69.5q-113 0 -209.5 -32t-161.5 -102t-65 -165v-391q80 114 194.5 158t264.5 44q84 0 162 -15t151 -49.5t127 -84.5t86.5 -125.5 t32.5 -167.5q0 -117 -49 -205.5t-131.5 -138.5t-178 -74t-202.5 -24q-85 0 -164 15t-153 49t-128.5 84.5t-87.5 127t-33 170.5zM211 428q-1 -92 40.5 -161t110.5 -106.5t145 -55t159 -17.5q65 0 126 9.5t121.5 34t105 62t72 97t27.5 135.5q0 85 -41 152.5t-107.5 107.5 t-144 61t-157.5 21t-158 -20.5t-146 -60.5t-110 -107t-43 -152z" />
<glyph unicode="7" horiz-adv-x="1210" d="M63 1331v103h1045l14 -91l-778 -1343h-125l774 1331h-930z" />
<glyph unicode="8" horiz-adv-x="1392" d="M70 377q0 140 94 237t229 125q-136 42 -217.5 123.5t-81.5 208.5q0 86 35.5 155t92.5 112.5t133 72.5t152 41t155 12t154 -11t151 -39.5t133 -72t92.5 -113t36.5 -157.5q0 -86 -44 -155.5t-111 -111.5t-156 -69q136 -28 234.5 -125.5t98.5 -232.5q0 -89 -36.5 -160.5 t-94.5 -117t-137 -75.5t-158.5 -42.5t-162.5 -12.5t-163 12.5t-158.5 42.5t-137.5 75.5t-95.5 117t-37.5 160.5zM180 377q0 -68 34 -122.5t86 -87.5t119 -54.5t127 -30t116 -8.5q55 0 114.5 8.5t126.5 30t119 54.5t86 87.5t35 122.5q0 69 -34.5 125t-87 91t-119 59.5 t-126.5 34t-114 9.5q-55 0 -115 -9t-127 -32.5t-119 -58.5t-86.5 -92t-34.5 -127zM203 1071q0 -77 46.5 -135t120 -88t147 -43.5t145.5 -13.5q55 0 113 8t121 28t112 50.5t80.5 80.5t31.5 113q0 66 -31 119t-79.5 85.5t-111.5 54.5t-121.5 31t-114.5 9q-57 0 -115 -8 t-121.5 -29.5t-111.5 -54t-79.5 -86t-31.5 -121.5z" />
<glyph unicode="9" horiz-adv-x="1376" d="M82 1012q0 117 49 205.5t131.5 138.5t178 74t202.5 24q85 0 163.5 -15t152.5 -49t128.5 -84.5t87.5 -127t33 -170.5v-627q0 -98 -46.5 -175.5t-124 -125t-173 -72t-200.5 -24.5q-147 0 -265.5 39t-195.5 122.5t-86 200.5h110q9 -125 131 -194.5t306 -69.5q113 0 210 32 t162.5 102t65.5 165v391q-80 -114 -195.5 -158.5t-265.5 -44.5q-84 0 -162 15.5t-151 49.5t-127 84.5t-86.5 126t-32.5 167.5zM190 1012q0 -73 27.5 -132.5t72 -98t104.5 -64t121.5 -36.5t125.5 -11q80 0 158 20.5t146 60.5t110 107t43 152q1 92 -40.5 161t-110.5 106.5 t-145 55t-159 17.5q-65 0 -126 -9.5t-121.5 -34t-105 -62t-72.5 -97t-28 -135.5z" />
<glyph unicode=":" horiz-adv-x="430" d="M106 61q0 50 40.5 70.5t81 0t40.5 -70.5t-40.5 -70.5t-81 0t-40.5 70.5zM106 676q0 50 40.5 70.5t81 0t40.5 -70.5t-40.5 -70.5t-81 0t-40.5 70.5z" />
<glyph unicode=";" horiz-adv-x="430" d="M92 -182l64 170q-50 19 -50 73q0 50 40.5 70.5t81 0t40.5 -70.5q0 -16 -6 -34l-82 -209h-88zM106 676q0 50 40.5 70.5t81 0t40.5 -70.5t-40.5 -70.5t-81 0t-40.5 70.5z" />
<glyph unicode="&#x3c;" horiz-adv-x="727" d="M68 610v80l432 381l61 -70l-393 -350l401 -352l-69 -70z" />
<glyph unicode="=" horiz-adv-x="1007" d="M109 424v100h751v-100h-751zM109 782v103h751v-103h-751z" />
<glyph unicode="&#x3e;" horiz-adv-x="735" d="M90 299l402 352l-394 350l62 70l432 -381v-80l-432 -381z" />
<glyph unicode="?" horiz-adv-x="1325" d="M68 1040q0 90 32.5 162.5t86 119.5t125.5 78t147.5 44.5t156.5 13.5q84 0 159 -12t148.5 -42t126.5 -76t85.5 -120.5t33.5 -169.5q0 -80 -19.5 -143.5t-46.5 -101.5t-71 -68t-78 -44t-82 -28q-58 -18 -92.5 -31.5t-65 -34.5t-45.5 -43t-25.5 -60t-13.5 -82t-3 -113h-105 q0 212 67 308t257 151q40 12 68 24t59 34t49.5 51t30.5 75t12 106q0 77 -28.5 136t-72.5 93.5t-105.5 56t-119.5 29t-123 7.5q-61 0 -118.5 -8.5t-117.5 -31t-104 -57t-72.5 -92t-29.5 -131.5h-106zM504 74q0 50 40 70.5t80 0t40 -70.5t-40 -70.5t-80 0t-40 70.5z" />
<glyph unicode="@" horiz-adv-x="1896" d="M109 629q0 164 55.5 308.5t157 252.5t253.5 170.5t334 62.5q364 0 579.5 -211t215.5 -577q0 -215 -82 -379q-32 -64 -86 -94.5t-103.5 -23.5t-85.5 53t-36 120v-2q-72 -98 -181.5 -153.5t-232.5 -55.5q-140 0 -258.5 68.5t-187 187t-68.5 258.5q0 153 69 271t185.5 180.5 t259.5 62.5q128 0 240.5 -58t173.5 -167v174h90v-764q-1 -52 24 -70.5t58.5 -2.5t56.5 57q68 122 68 338q0 334 -187 514t-512 180q-157 0 -288 -53t-220 -146t-138.5 -222t-49.5 -279q0 -307 189.5 -495.5t506.5 -188.5q146 0 314 84l53 -78q-163 -101 -367 -101 q-244 0 -427 102t-278 278t-95 399zM483 614q0 -172 121 -293.5t293 -121.5q100 0 181.5 36t131.5 94.5t77 133t27 153t-27 153t-77 133t-131.5 94.5t-181.5 36q-177 0 -295.5 -114.5t-118.5 -303.5z" />
<glyph unicode="A" horiz-adv-x="1421" d="M-16 0l643 1434h121l643 -1434h-119l-158 352h-856l-156 -352h-118zM301 455h770l-385 872z" />
<glyph unicode="B" horiz-adv-x="1374" d="M133 0v1434h588q93 0 176 -23.5t150 -70t106 -123.5t39 -175q0 -109 -63 -191t-171 -116q133 -36 208 -134.5t75 -225.5q0 -85 -31 -152t-81 -108t-119.5 -67.5t-139.5 -37t-149 -10.5h-588zM244 106h477q60 0 112.5 6t109.5 24t97.5 47t66.5 79t26 115 q-1 80 -35.5 140.5t-92.5 95t-126 51t-144 16.5h-491v-574zM244 784h491q70 0 128.5 12t111 39.5t82.5 80t30 126.5q0 61 -21 111t-56.5 84t-83 57.5t-99 34t-106.5 10.5h-477v-555z" />
<glyph unicode="C" horiz-adv-x="1378" d="M55 709v8q-1 112 27 216q28 108 89.5 202t147.5 164t208 110.5t266 40.5t280.5 -55t241.5 -160l-76 -66q-90 90 -206 136.5t-240 46.5q-122 0 -225.5 -33.5t-178 -92.5t-126.5 -139.5t-77 -174.5q-24 -91 -24 -191v-8q2 -128 43 -240t118 -199t198 -137.5t272 -50.5 q124 0 240.5 46.5t207.5 135.5l74 -69q-105 -105 -241.5 -160t-280.5 -55q-141 0 -261.5 38t-207 105.5t-147.5 159t-91 198.5t-31 224z" />
<glyph unicode="D" horiz-adv-x="1452" d="M121 0v1434h485q141 0 260.5 -39t203 -106t143 -157t89 -191t31.5 -208v-16q0 -103 -24 -201q-26 -106 -84.5 -199.5t-143 -164t-207 -111.5t-268.5 -41h-485zM231 106h375q154 0 276 54.5t195.5 144.5t110.5 200q35 104 35 216v12q-2 91 -26.5 176.5t-74.5 162 t-121 133.5t-173 90.5t-222 33.5h-375v-1223z" />
<glyph unicode="E" horiz-adv-x="1257" d="M131 0v1434h989v-105h-880v-557h839v-100h-839v-566h905v-106h-1014z" />
<glyph unicode="F" horiz-adv-x="1208" d="M131 -2v1436h965v-111h-854v-571h825v-105h-825v-649h-111z" />
<glyph unicode="G" horiz-adv-x="1507" d="M59 716q0 332 205 534q205 204 535 204q144 0 280.5 -55t243.5 -160l-63 -70q-91 90 -213.5 137.5t-247.5 47.5q-123 0 -227 -34.5t-178 -95t-126.5 -141.5t-77.5 -174q-24 -89 -24 -186v-8q0 -128 41 -241t118 -200t199.5 -137.5t274.5 -50.5q119 0 232.5 42t203.5 124 v401h-500v97h604v-537q-231 -231 -540 -231q-177 0 -320 59t-233.5 160.5t-138.5 232.5t-48 282z" />
<glyph unicode="H" horiz-adv-x="1452" d="M133 0v1434h111v-682h913v682h111v-1434h-111v651h-913v-651h-111z" />
<glyph unicode="I" horiz-adv-x="425" d="M133 0v1434h109v-1434h-109z" />
<glyph unicode="J" horiz-adv-x="1390" d="M74 541h102q0 -202 131.5 -331.5t331.5 -129.5q204 0 331.5 122t127.5 339v796h-549v97h657v-893q0 -172 -74 -301.5t-202 -196t-291 -66.5q-246 0 -405.5 157.5t-159.5 406.5z" />
<glyph unicode="K" horiz-adv-x="1153" d="M133 2v1432h111v-654l696 654h133v-11l-721 -675l787 -740v-8h-140l-755 707v-705h-111z" />
<glyph unicode="L" horiz-adv-x="1126" d="M131 0v1434h111v-1330h807v-104h-918z" />
<glyph unicode="M" horiz-adv-x="1675" d="M133 0v1434h131l549 -836l543 836h135v-1434h-109v1274l-548 -840h-37l-553 840v-1274h-111z" />
<glyph unicode="N" horiz-adv-x="1441" d="M133 0v1434h47l965 -1186v1186h108v-1434h-43l-966 1184v-1184h-111z" />
<glyph unicode="O" horiz-adv-x="1646" d="M70 719q0 117 28.5 224.5t87.5 201t143.5 163t203.5 109t260 39.5t260.5 -40t204 -109.5t143.5 -163.5q59 -95 87 -203q28 -105 28 -217v-8q-1 -115 -29.5 -222t-88 -201.5t-143.5 -164.5t-203 -111t-259 -41t-259.5 41t-203.5 112t-143.5 165.5t-88 202.5t-28.5 223z M178 717q1 -124 40.5 -237t114 -203.5t193.5 -144.5t267 -54t268 54t194.5 144.5t114 203.5t39.5 237q0 127 -39 240t-113.5 202.5t-194 142t-269.5 52.5q-120 0 -221.5 -34t-173.5 -93t-122.5 -139.5t-74.5 -174.5q-23 -90 -23 -188v-8z" />
<glyph unicode="P" horiz-adv-x="1339" d="M131 0v1434h629q113 0 204 -40.5t147 -106.5t86.5 -150t30.5 -172t-30.5 -172t-86.5 -150t-147 -106.5t-204 -40.5h-518v-496h-111zM242 596h518q86 0 156 31.5t113 83.5t66 118t23 134.5t-23 134.5t-66 118t-113 83.5t-156 31.5h-518v-735z" />
<glyph unicode="Q" horiz-adv-x="1599" d="M68 729q1 116 30.5 221.5t89 197.5t144 159.5t203 106t258.5 38.5q141 0 260.5 -39t204 -107t143.5 -161t87 -201q28 -105 28 -219v-8q0 -133 -43 -262t-125 -228l182 -176l-70 -71l-180 172q-190 -166 -487 -166q-142 0 -262 39.5t-205 108.5t-144 163t-87 203 q-27 105 -27 221v8zM176 729v-8q0 -99 22 -189q24 -94 74 -175t122.5 -140t174.5 -93t224 -34q149 0 268 51t193.5 139t113.5 199.5t39 237.5q0 129 -39 241.5t-113.5 200.5t-193.5 138.5t-268 50.5q-179 0 -320.5 -81.5t-219 -222.5t-77.5 -315z" />
<glyph unicode="R" horiz-adv-x="1329" d="M133 0v1434h631q112 0 203.5 -38t148.5 -102t87.5 -143t31.5 -164v-6q-1 -86 -29 -161q-30 -78 -85.5 -139t-146 -96.5t-204.5 -35.5l506 -549h-146l-495 543h-391v-543h-111zM244 647h508q181 0 270.5 92t91.5 250v6q0 62 -21 119q-22 60 -63.5 109t-110.5 78.5 t-155 29.5h-520v-684z" />
<glyph unicode="S" horiz-adv-x="1296" d="M39 289l98 49q42 -83 126.5 -144t178 -88.5t185.5 -27.5q48 0 95 5t101 17t98.5 34.5t82 54.5t58.5 81.5t21 110.5q0 35 -8.5 65.5t-22 54.5t-39 45.5t-47.5 36.5t-60.5 29.5t-65.5 23.5t-74 20t-75 16.5t-79 15.5q-57 11 -88 17.5t-83.5 19t-83 23t-73.5 28t-68 35.5 t-54 44t-44 55t-25.5 66.5t-10.5 80.5v10q0 81 32 147q34 70 89 114t129 73t147 41t148 12q85 0 150 -9t134 -33.5t129 -75t111 -126.5l-90 -53q-37 60 -87 100.5t-110 60t-114 26.5t-123 8q-55 0 -110 -8t-115 -29t-105 -52.5t-74.5 -83.5t-29.5 -118q0 -38 12.5 -70 t31 -55t53.5 -43.5t66.5 -33.5t83 -26.5t90 -21.5t101.5 -20q214 -41 301 -73q189 -68 240 -207q22 -59 22 -132q-1 -93 -37.5 -165.5t-93.5 -116t-134 -71.5t-150.5 -38.5t-151.5 -10.5q-117 0 -227 31t-209 103.5t-152 177.5z" />
<glyph unicode="T" d="M20 1333v99h1147v-99h-518v-1333h-110v1333h-519z" />
<glyph unicode="U" horiz-adv-x="1398" d="M131 543v891h109v-891q0 -111 38 -201.5t99.5 -145.5t141 -85t161.5 -30t161.5 30t141 85.5t99.5 145.5t38 201v891h109v-891q0 -136 -47 -245.5t-124.5 -177t-176 -104.5t-201.5 -37t-201.5 36.5t-176 104t-124.5 177.5t-47 246z" />
<glyph unicode="V" horiz-adv-x="1380" d="M23 1434h118l531 -1311l530 1311h119l-590 -1438h-119z" />
<glyph unicode="W" horiz-adv-x="2140" d="M16 1434h117l442 -1311l441 1311h61l439 -1311l444 1311h119l-506 -1438h-119l-227 672l-180 567l-181 -563l-229 -676h-119z" />
<glyph unicode="X" horiz-adv-x="1323" d="M61 0v2l527 733l-488 695v2h121l434 -613l437 613h118v-2l-487 -695l526 -733v-2h-131l-463 655l-462 -655h-132z" />
<glyph unicode="Y" horiz-adv-x="1308" d="M8 1432v2h129l486 -754l487 754h129v-2l-561 -859v-573h-111v573z" />
<glyph unicode="Z" horiz-adv-x="1183" d="M27 0v47l911 1284h-862v103h1038v-39l-924 -1286h924v-109h-1087z" />
<glyph unicode="[" horiz-adv-x="567" d="M160 -246v1807h370v-99h-264v-1609h264v-99h-370z" />
<glyph unicode="\" horiz-adv-x="892" d="M-8 1554h108l764 -1722h-106z" />
<glyph unicode="]" horiz-adv-x="622" d="M35 -147h264v1609h-264v99h371v-1807h-371v99z" />
<glyph unicode="^" horiz-adv-x="1056" d="M25 786l430 648h102l430 -648l-4 -6h-106l-371 568l-371 -568h-106z" />
<glyph unicode="_" horiz-adv-x="1052" d="M27 -53h958v-94h-958v94z" />
<glyph unicode="`" horiz-adv-x="479" d="M59 1434v2h134l153 -246v-8h-98z" />
<glyph unicode="a" d="M57 506q0 151 69.5 270.5t186.5 183.5t258 64q129 0 241 -59.5t173 -173.5v221h100v-1012h-100v215q-71 -115 -179 -173t-235 -58q-141 0 -258 65t-186.5 185.5t-69.5 271.5zM158 506q0 -187 119 -305.5t294 -118.5q102 0 184.5 36.5t133 96t78 135.5t27.5 155t-27.5 155 t-78 135.5t-133 96t-184.5 36.5q-175 0 -294 -117.5t-119 -304.5z" />
<glyph unicode="b" horiz-adv-x="1271" d="M113 0v1434h98v-643q59 118 171 177.5t249 59.5q107 0 199 -35t161 -100t108.5 -165t39.5 -222q0 -244 -143 -383t-363 -139q-132 0 -246 63t-176 176v-223h-98zM213 508q0 -188 117 -307t297 -119q179 0 296 111t117 313q0 138 -56.5 236t-148.5 144t-208 46 q-177 0 -295.5 -118.5t-118.5 -305.5z" />
<glyph unicode="c" horiz-adv-x="1034" d="M53 506q0 234 147.5 375t372.5 141q101 0 197.5 -39t171.5 -113l-65 -63q-60 60 -139.5 90.5t-164.5 30.5q-86 0 -162 -28t-134 -80.5t-91.5 -133.5t-33.5 -180t33.5 -180t91.5 -133.5t134 -80.5t162 -28q83 0 161.5 32t139.5 93l68 -68q-75 -75 -171 -113t-198 -38 q-143 0 -260.5 61.5t-188.5 180.5t-71 274z" />
<glyph unicode="d" horiz-adv-x="1259" d="M57 506q0 122 39.5 222t108.5 165t161 100t199 35q137 0 249 -59.5t171 -177.5v643h98v-1434h-98v223q-62 -113 -176 -176t-246 -63q-220 0 -363 139t-143 383zM156 506q0 -202 117 -313t296 -111q180 0 297 119t117 307q0 187 -118.5 305.5t-295.5 118.5 q-116 0 -208 -46t-148.5 -144t-56.5 -236z" />
<glyph unicode="e" horiz-adv-x="1216" d="M55 506q0 148 69 268.5t186.5 187t258.5 66.5q87 0 165 -21t145 -66t113 -111q46 -64 67 -160q14 -63 14 -134q0 -37 -4 -77h-911q15 -173 131.5 -274t279.5 -101q105 0 207.5 41t157.5 113l72 -58q-71 -93 -190.5 -143.5t-246.5 -50.5q-143 0 -259 62t-185.5 181.5 t-69.5 276.5zM158 547h821q-1 185 -112.5 287t-297.5 102q-162 0 -278 -104t-133 -285z" />
<glyph unicode="f" horiz-adv-x="772" d="M10 915v89h207v90q0 161 72 253.5t231 92.5q108 0 201 -70l-49 -74q-46 28 -79.5 40t-76.5 12q-201 0 -201 -254v-90h334v-89h-334v-915h-98v915h-207z" />
<glyph unicode="g" horiz-adv-x="1112" d="M61 -256h101q0 -100 53.5 -170.5t137 -102.5t188.5 -32q78 0 145.5 18t121.5 53.5t85 95.5t31 138t-33 138.5t-88.5 95t-122 52t-139.5 17.5q-214 0 -344.5 141t-130.5 349q0 153 64.5 266.5t171 170t239.5 56.5q75 0 150.5 -25t135.5 -67l99 115l65 -58l-98 -114 q125 -135 125 -344q0 -134 -74.5 -254.5t-198.5 -176.5q134 -48 205.5 -140t71.5 -222q0 -132 -65.5 -224.5t-172 -135.5t-243.5 -43q-135 0 -243 46.5t-172.5 139t-64.5 217.5zM166 537q0 -162 103.5 -276t271.5 -114q156 0 267.5 116t111.5 274q0 185 -107.5 289 t-271.5 104t-269.5 -101.5t-105.5 -291.5z" />
<glyph unicode="h" horiz-adv-x="1146" d="M113 0v1434h96v-611q58 103 154 152t210 51q207 0 315.5 -121t108.5 -325v-580h-98v580q0 163 -81 256.5t-245 93.5q-158 0 -259 -107.5t-101 -267.5v-555h-100z" />
<glyph unicode="i" horiz-adv-x="387" d="M84 1341q0 51 40 71q20 10 41 9l41 -9q40 -20 40 -70q0 -52 -40 -72q-20 -10 -41 -10l-41 10q-40 20 -40 71zM113 0h100v1016h-100v-1016z" />
<glyph unicode="j" horiz-adv-x="391" d="M-221 -395q91 -49 182 -49q66 0 114.5 17.5t78.5 47.5t47.5 75.5t24.5 93.5q5 43 5 95v17v1112h-98v-1112q0 -59 -5.5 -98.5t-22 -77.5t-52.5 -57t-92 -19q-83 0 -154 41zM100 1352q0 50 40 70q21 11 41 11l41 -11q40 -20 40 -70t-40 -70q-21 -11 -41 -11l-41 11 q-40 20 -40 70z" />
<glyph unicode="k" horiz-adv-x="897" d="M113 0v1434h98v-865l477 443h133v-4l-512 -473l572 -529v-6h-127l-543 496v-496h-98z" />
<glyph unicode="l" horiz-adv-x="380" d="M113 0v1434h100v-1434h-100z" />
<glyph unicode="m" horiz-adv-x="1882" d="M113 0v1012h94l2 -168q50 95 137.5 141.5t192.5 46.5q126 0 229 -61.5t145 -188.5q44 120 148 185t227 65q186 0 305 -119t119 -307v-606h-100v606q0 147 -90 239.5t-234 92.5t-234.5 -95.5t-90.5 -242.5v-600h-101v600q0 147 -90.5 241.5t-234.5 94.5t-234 -94.5 t-90 -241.5v-600h-100z" />
<glyph unicode="n" horiz-adv-x="1177" d="M113 0v1012h98v-181q56 99 151.5 148t208.5 51q206 0 331.5 -119t125.5 -327v-584h-100v582q0 168 -97 260q-95 90 -257 90h-7q-156 -1 -255 -106t-99 -263v-563h-100z" />
<glyph unicode="o" horiz-adv-x="1212" d="M66 504q0 157 69 278t185.5 184.5t259.5 63.5t259.5 -63.5t185.5 -184.5t69 -278q0 -235 -147 -376.5t-367 -141.5t-367 141.5t-147 376.5zM164 504q0 -191 119.5 -305.5t296.5 -114.5t296 114.5t119 305.5q0 192 -119.5 312t-295.5 120t-296 -120t-120 -312z" />
<glyph unicode="p" horiz-adv-x="1273" d="M113 -422v1434h98v-240q61 117 176.5 185.5t261.5 68.5q214 -8 353 -146t139 -374q0 -124 -40 -224.5t-110 -165.5t-163 -99.5t-201 -34.5q-133 0 -244 64t-174 187v-655h-96zM217 504q0 -185 117.5 -305.5t292.5 -120.5q117 0 209 46.5t148 145t56 236.5 q0 205 -116 314.5t-297 109.5q-177 0 -293.5 -120t-116.5 -306z" />
<glyph unicode="q" horiz-adv-x="1259" d="M59 506q0 236 139 374t353 146q146 0 261.5 -68.5t176.5 -185.5v240h98v-1434h-96v655q-63 -123 -174 -187t-244 -64q-108 0 -201 34.5t-163 99.5t-110 165.5t-40 224.5zM160 506q0 -138 56 -236.5t148 -145t209 -46.5q175 0 292.5 120.5t117.5 305.5q0 186 -116.5 306 t-293.5 120q-181 0 -297 -109.5t-116 -314.5z" />
<glyph unicode="r" horiz-adv-x="802" d="M113 0v1012h94l4 -181q44 96 137 143.5t199 47.5h10q108 0 207 -59l-45 -82q-75 47 -172 47q-140 -1 -237 -100t-97 -238v-590h-100z" />
<glyph unicode="s" horiz-adv-x="1021" d="M53 186l74 66q60 -86 161 -129t210 -43q53 0 101.5 8t98.5 27.5t81.5 59.5t33.5 97q1 30 -9 55.5t-24.5 43t-43 33t-52 24.5t-64 18.5t-66 14.5t-71.5 12q-53 9 -84.5 15t-78.5 18t-74.5 24t-61 33t-51 45.5t-30.5 59.5t-13 81q0 69 32 124q34 56 91.5 89.5t128.5 49.5 q67 16 141 16h9q232 0 376 -135l-61 -66q-71 63 -145 85t-170 22h-8q-76 0 -142 -18q-68 -18 -114 -62q-43 -42 -42 -101v-5q1 -37 20.5 -66.5t48.5 -47.5t69 -32t77.5 -22t79.5 -15h3t3 -0.5t3.5 -1t3.5 -0.5q161 -28 220 -47q172 -58 194 -192q3 -22 3 -46v-12 q-2 -79 -41 -137t-103 -88t-131 -43.5t-140 -13.5q-139 0 -259 52t-184 150z" />
<glyph unicode="t" horiz-adv-x="806" d="M31 928v84h215v295l98 10v-305h344v-84h-344v-617q0 -56 7 -95t26.5 -72t57.5 -49.5t95 -16.5q72 0 156 41l35 -82q-104 -51 -191 -51q-154 0 -219 83t-65 242v617h-215z" />
<glyph unicode="u" horiz-adv-x="1177" d="M111 430v584h100v-582q1 -168 97 -260q94 -90 256 -90h7q156 1 255.5 106t99.5 263v563h100v-1014h-98v182q-56 -99 -152 -147.5t-209 -50.5q-206 0 -331 119t-125 327z" />
<glyph unicode="v" horiz-adv-x="1028" d="M16 1012h111l369 -895l368 895h111l-424 -1012h-111z" />
<glyph unicode="w" horiz-adv-x="1566" d="M-2 1012h111l305 -895l309 895h72l307 -895l303 895h111l-359 -1012h-110l-164 442l-123 394l-127 -396l-164 -440h-111z" />
<glyph unicode="x" horiz-adv-x="995" d="M18 0v4l392 520l-363 484v4h121l301 -414l301 414h121v-4l-363 -484l392 -520v-4h-119l-332 453l-332 -453h-119z" />
<glyph unicode="y" horiz-adv-x="1058" d="M35 1012h108l236 -598l119 -293l116 295l254 596h109l-617 -1434h-106l186 434z" />
<glyph unicode="z" horiz-adv-x="940" d="M49 0v35l645 887h-612v90h762v-39l-639 -879h639v-94h-795z" />
<glyph unicode="{" horiz-adv-x="653" d="M66 598v80q161 0 161 242v276q0 178 69 246t243 35v-70q-131 20 -176.5 -25t-45.5 -186v-276q0 -34 -1 -57.5t-5.5 -56t-14.5 -55.5t-25.5 -46.5t-41 -40t-59.5 -25.5q41 -10 69.5 -33.5t43.5 -49t23 -64.5t9.5 -67t1.5 -69v-301q0 -139 45.5 -181t176.5 -19v-78 q-55 -8 -98 -8t-76 7t-56.5 23t-39.5 38.5t-25 56t-13 72t-4 89.5v301q0 242 -161 242z" />
<glyph unicode="|" horiz-adv-x="516" d="M180 -242v1686h109v-1686h-109z" />
<glyph unicode="}" horiz-adv-x="610" d="M37 -145q131 -23 176 19t45 181v301q0 28 0.5 48.5t4 49t9.5 49t17 44t26 40.5t38.5 31t52.5 21q-34 9 -60 25.5t-41.5 40t-25.5 46.5t-14 55.5t-5.5 56t-1.5 57.5v276q0 141 -45 186t-176 25v70q118 22 187 -3t96.5 -92t27.5 -186v-276q0 -242 162 -242v-80 q-162 0 -162 -242v-301q0 -51 -4 -89.5t-13 -72t-25 -56t-39.5 -38.5t-56 -23t-75.5 -7t-98 8v78z" />
<glyph unicode="~" horiz-adv-x="1136" d="M29 573q40 91 104.5 145t148.5 62.5t179 -43.5l209 -119q61 -32 112.5 -37t97.5 27.5t72 108.5l84 -33q-53 -140 -155.5 -184.5t-239.5 22.5l-223 129q-106 50 -190 15.5t-124 -129.5z" />
<glyph unicode="&#xa1;" horiz-adv-x="399" d="M96 950q0 50 40.5 70.5t81 0t40.5 -70.5t-40.5 -70.5t-81 0t-40.5 70.5zM129 -412h104v1145h-104v-1145z" />
<glyph unicode="&#xa2;" horiz-adv-x="1177" d="M121 485q0 218 132.5 356.5t340.5 157.5v123h98v-123q187 -19 320 -149l-70 -64q-126 123 -299 123q-88 0 -164 -27.5t-134.5 -79.5t-92 -133.5t-33.5 -183.5q0 -137 58.5 -234.5t152.5 -142.5t213 -45q169 0 299 127l70 -71q-135 -132 -320 -148v-145h-98v145 q-134 12 -239.5 73.5t-169.5 175.5t-64 265z" />
<glyph unicode="&#xa3;" horiz-adv-x="1357" d="M121 0v92q78 80 124.5 152.5t62.5 140t15 122.5t-16 124h-186v88h164q-1 4 -8.5 30.5t-9 33.5t-8 31t-8.5 35t-6.5 34t-6.5 38t-4.5 36t-3.5 41t-1 40q0 102 39 181.5t107.5 128t155.5 73.5t188 25q75 0 140 -11t125.5 -38t103 -68t68 -106t26.5 -148h-95q-1 65 -23 115 t-57.5 80t-85 49t-98 26t-104.5 7q-175 0 -282 -81t-107 -233q0 -39 6 -85.5t12 -74t20 -86t17 -73.5h530v-88h-512q13 -75 14 -136t-12 -130.5t-53.5 -136t-107.5 -130.5h952v-98h-1075z" />
<glyph unicode="&#xa4;" horiz-adv-x="1150" d="M88 279l123 122q-89 112 -89.5 264.5t87.5 266.5l-121 121l72 71l121 -123q108 80 256 80q146 0 254 -80l122 123l72 -71l-121 -121q88 -114 87 -266t-89 -265l123 -122l-72 -72l-125 123q-102 -76 -251 -76q-147 0 -254 76l-123 -123zM223 668.5q0 -59.5 20.5 -117 t58 -102t98.5 -72t137 -27.5q75 0 136 27.5t98.5 72t57.5 102t20 117t-20 117t-57.5 102t-98.5 72t-136 27.5q-76 0 -137 -27.5t-98.5 -72t-58 -102t-20.5 -117z" />
<glyph unicode="&#xa5;" horiz-adv-x="1284" d="M8 1432v2h125l490 -754l491 754h125v-2l-520 -793h285v-84h-328v-129h328v-84h-328v-342h-109v342h-315v84h315v129h-315v84h272z" />
<glyph unicode="&#xa6;" horiz-adv-x="399" d="M109 -180v743h110v-743h-110zM109 700v746h110v-746h-110z" />
<glyph unicode="&#xa7;" horiz-adv-x="1103" d="M94 164l74 63q60 -83 161 -125.5t210 -42.5q52 0 101 8t99.5 27.5t82 59t34.5 94.5q1 39 -18 69.5t-41 47.5t-73.5 32t-80 20.5t-95.5 16.5q-5 1 -8 1.5t-7.5 1t-8.5 1.5q-65 10 -117 23t-105.5 35.5t-89.5 51t-59 71t-24 94.5q-2 75 50.5 144t139.5 99q-89 32 -139 86.5 t-51 145.5q-1 70 33 125t91.5 87.5t128.5 48.5t150 15q236 0 377 -133l-61 -63q-71 61 -145.5 82.5t-170.5 21.5q-82 1 -150.5 -18t-112.5 -61.5t-42 -102.5q1 -28 12.5 -52t26.5 -40.5t43.5 -31.5t49.5 -23.5t58.5 -17.5t57 -13t57.5 -11q48 -8 82 -14t82 -18.5t81.5 -26 t70 -35.5t58 -48t35 -62.5t11.5 -79.5q-5 -179 -209 -228q100 -30 156.5 -87.5t52.5 -159.5q-2 -63 -28.5 -112.5t-68 -80t-97 -50t-109.5 -27t-112 -7.5q-139 0 -259 51.5t-184 147.5zM227 715q1 -48 36.5 -86.5t91.5 -59.5t123.5 -31.5t134.5 -2t122 29t89 62t32 96.5 q-1 47 -36.5 86t-92 61.5t-124.5 35t-135 4.5t-122 -28.5t-88 -64t-31 -102.5z" />
<glyph unicode="&#xa8;" horiz-adv-x="931" d="M131 1389q0 50 40.5 70.5t81 0t40.5 -70.5t-40.5 -70.5t-81 0t-40.5 70.5zM569 1389q0 50 40.5 70.5t81 0t40.5 -70.5t-40.5 -70.5t-81 0t-40.5 70.5z" />
<glyph unicode="&#xa9;" horiz-adv-x="1804" d="M131 713q0 123 31 234.5t93 205t149.5 162t207 107t258.5 38.5q173 0 314.5 -59t233.5 -161.5t142 -237.5t50 -289q0 -153 -50 -288t-142 -238t-233.5 -162.5t-314.5 -59.5t-315 59.5t-233.5 162.5t-141 238t-49.5 288zM233 713q0 -184 73.5 -331.5t220 -236t343.5 -88.5 q149 0 270 51t200.5 140t122 208.5t42.5 256.5q0 138 -42.5 257.5t-122 208.5t-200.5 140t-270 51t-270.5 -51t-201 -140t-122.5 -208.5t-43 -257.5zM494 719q0 -170 115.5 -286t285.5 -116q79 0 152.5 30.5t128.5 86.5l-72 76q-88 -88 -209 -88q-126 0 -211.5 85.5 t-85.5 211.5q0 125 85.5 210t211.5 85q120 0 209 -86l72 73q-55 56 -128.5 86.5t-152.5 30.5q-170 0 -285.5 -115t-115.5 -284z" />
<glyph unicode="&#xaa;" horiz-adv-x="956" d="M80 1106q0 155 97.5 247.5t240.5 92.5q78 0 148 -35.5t112 -101.5v127h90v-664h-90v129q-44 -67 -113 -102t-147 -35q-143 0 -240.5 93.5t-97.5 248.5zM104 547v98h684v-98h-684zM182 1106q0 -108 70 -178t172 -70q77 0 134 36.5t82.5 91.5t25.5 119t-25.5 119 t-82.5 91.5t-134 36.5q-103 0 -172.5 -69.5t-69.5 -176.5z" />
<glyph unicode="&#xab;" horiz-adv-x="761" d="M61 649l283 449h107v-11l-277 -438l277 -438v-12h-107zM254 649l283 449h106v-11l-276 -438l276 -438v-12h-106z" />
<glyph unicode="&#xac;" horiz-adv-x="925" d="M78 637v104h710v-383h-102v279h-608z" />
<glyph unicode="&#xad;" horiz-adv-x="978" d="M119 592v106h717v-106h-717z" />
<glyph unicode="&#xae;" horiz-adv-x="1871" d="M166 713q0 123 31 234.5t93.5 205t150 162t206.5 107t258 38.5t259 -38.5t207.5 -107t149.5 -162t93 -205t31 -234.5q0 -153 -49.5 -288t-141.5 -238t-234 -162.5t-315 -59.5q-139 0 -258 38.5t-206.5 108t-150 163t-93.5 205t-31 233.5zM270 713q0 -137 42.5 -256.5 t122 -208.5t200.5 -140t270 -51q197 0 343.5 88.5t220 236t73.5 331.5q0 138 -43 257.5t-122.5 208.5t-201 140t-270.5 51t-270 -51t-200.5 -140t-122 -208.5t-42.5 -257.5zM633 332h96v295h170l256 -295h107v16l-246 279q64 8 113.5 39t74 75t34.5 95t-5 100t-44.5 89.5 t-84 65.5t-123.5 25h-348v-784zM729 713v309h252q45 0 80.5 -17t53.5 -44.5t26.5 -60.5t-1 -65.5t-28.5 -60t-55 -44.5t-82 -17h-246z" />
<glyph unicode="&#xb0;" horiz-adv-x="724" d="M120 1284q0 52 22.5 96.5t73.5 74.5t120 30t119 -30t73 -74.5t23 -96.5t-23 -96.5t-73 -74.5t-119 -30t-120 30t-73.5 74.5t-22.5 96.5zM210.5 1285q-0.5 -32 12 -59t42 -45t71.5 -18q57 0 89 38t32 84t-32 84t-89 38q-39 0 -68 -18t-43 -45t-14.5 -59z" />
<glyph unicode="&#xb1;" horiz-adv-x="1062" d="M150 707v92h333v336h95v-336h331v-92h-331v-340h-95v340h-333zM166 96v97h733v-97h-733z" />
<glyph unicode="&#xb2;" horiz-adv-x="946" d="M195 877v163q0 107 82.5 165.5t199.5 58.5q174 0 174 135q0 131 -178 131q-39 0 -67.5 -4.5t-56 -17.5t-42 -40.5t-14.5 -68.5h-94q0 62 23.5 106.5t64.5 67.5t87 33t101 10q52 0 97 -10t86.5 -33t65.5 -67.5t24 -106.5q0 -57 -19.5 -99t-47.5 -65t-67.5 -36.5t-70.5 -17 t-66 -3.5q-27 0 -55 -5.5t-59 -19.5t-50.5 -43.5t-19.5 -71.5v-75h442v-86h-540z" />
<glyph unicode="&#xb3;" horiz-adv-x="829" d="M117 1090h98q0 -127 180 -127q32 0 60 5t59 17.5t49.5 41t18.5 69.5q0 42 -45.5 80t-135.5 38h-112v89h104q43 0 80 9.5t66.5 36.5t29.5 68q0 46 -47 81.5t-129 35.5q-28 0 -56 -6t-57 -19.5t-47 -41t-18 -66.5h-88q0 56 22 99t60.5 67.5t84.5 36.5t99 12q113 0 192 -52 t79 -149q0 -61 -32.5 -102.5t-86.5 -55.5q62 -16 97.5 -63.5t35.5 -97.5q0 -64 -24 -110t-66.5 -70.5t-90 -35t-104.5 -10.5q-55 0 -102 11.5t-87 36t-63 68.5t-24 104z" />
<glyph unicode="&#xb4;" horiz-adv-x="458" d="M80 1182v8l153 246h134v-2l-189 -252h-98z" />
<glyph unicode="&#xb6;" horiz-adv-x="1660" d="M100.5 805.5q-24.5 110.5 3 220.5t84.5 201t165 148t245 57h956v-91h-217v-1783h-96v1783h-551v-1783h-100v841q-139 0 -247 57t-163 148t-79.5 201.5z" />
<glyph unicode="&#xb7;" horiz-adv-x="366" d="M74 694q0 50 40.5 70.5t81 0t40.5 -70.5t-40.5 -70.5t-81 0t-40.5 70.5z" />
<glyph unicode="&#xb8;" horiz-adv-x="606" d="M45 -315l57 55q56 -80 154 -80q46 0 82.5 20t46.5 58q19 62 -33 101t-159 16l-13 10l41 180h80l-27 -119q79 4 129 -28t63.5 -79t0.5 -100q-19 -71 -78.5 -107t-132.5 -36q-66 0 -124 28t-87 81z" />
<glyph unicode="&#xb9;" horiz-adv-x="577" d="M104 1513v86h211v-638h105v-87h-311v87h108v552h-113z" />
<glyph unicode="&#xba;" horiz-adv-x="833" d="M102 1184v106q0 78 25.5 141t67.5 102t95 60t109 21t109 -21.5t95 -60t67.5 -101.5t25.5 -141v-106q0 -78 -25.5 -141t-67.5 -101.5t-95 -59.5t-109 -21t-109 21t-95 59.5t-67.5 101.5t-25.5 141zM199 1184q0 -72 29.5 -126t73.5 -78.5t95.5 -25t95.5 23.5t73.5 78 t29.5 128v106q0 57 -17 103t-45 74.5t-63.5 44t-73 15.5t-73 -15.5t-63.5 -44t-45 -74.5t-17 -103v-106z" />
<glyph unicode="&#xbb;" horiz-adv-x="761" d="M63 199v12l277 438l-277 438v11h107l283 -449l-283 -450h-107zM256 199v12l276 438l-276 438v11h106l283 -449l-283 -450h-106z" />
<glyph unicode="&#xbc;" horiz-adv-x="1589" d="M133 1348v86h211v-633h105v-86h-312v86h109v547h-113zM297 -14l764 1462h110l-765 -1462h-109zM829 238l359 491h133v-477h86v-90h-86v-160h-92v160h-393zM944 252h285v387z" />
<glyph unicode="&#xbd;" horiz-adv-x="1662" d="M133 1348v86h211v-633h105v-86h-312v86h109v547h-113zM297 -14l764 1462h110l-765 -1462h-109zM958 0v164q0 106 83 164.5t200 58.5q174 0 174 135q0 131 -178 131q-39 0 -67.5 -4.5t-56 -17.5t-42 -40.5t-14.5 -68.5h-94q0 62 23.5 106.5t64.5 67.5t87 33t101 10 q52 0 97 -10t86 -33t65 -67.5t24 -106.5q0 -57 -19.5 -99t-47.5 -65t-67.5 -36.5t-70 -17t-65.5 -3.5q-28 0 -55.5 -5.5t-58.5 -19t-50.5 -43t-19.5 -71.5v-76h442v-86h-541z" />
<glyph unicode="&#xbe;" horiz-adv-x="1634" d="M111 942h96q0 -125 176 -125q24 0 46 2.5t48.5 10.5t45 22t31.5 38.5t13 57.5q0 41 -45 79t-133 38h-110v86h102q42 0 79 9.5t66 36.5t29 67q0 44 -46.5 79t-127.5 35q-27 0 -54.5 -6t-55.5 -19.5t-46 -41t-18 -64.5h-86q0 56 22 98t59.5 66t82.5 35.5t96 11.5 q71 0 130 -20t97.5 -65.5t38.5 -110.5q0 -60 -32 -101t-85 -55q60 -14 96 -61.5t36 -96.5q0 -63 -23.5 -107.5t-65.5 -68.5t-89 -34.5t-103 -10.5q-73 0 -130.5 18.5t-98 68.5t-41.5 128zM395 -14l789 1462h108l-792 -1462h-105zM911 238l359 491h133v-477h86v-90h-86v-160 h-92v160h-393zM1026 252h285v387z" />
<glyph unicode="&#xbf;" horiz-adv-x="1325" d="M84 -31q1 -95 33.5 -168.5t85.5 -118.5t126.5 -73.5t148 -39.5t159.5 -11q81 0 156.5 13t148 44.5t126 78t86 119t32.5 162.5h-107q-1 -74 -29.5 -131.5t-72.5 -92t-104 -56.5t-117.5 -30.5t-118.5 -8.5q-449 0 -449 313q0 233 220 299q189 55 255 151t66 308h-102 q0 -69 -3 -113t-14 -82.5t-26 -61t-45 -43.5t-65.5 -35t-92.5 -32q-55 -16 -102.5 -43.5t-94 -72.5t-73.5 -116t-27 -159zM590 942q0 50 40 70.5t80 0t40 -70.5t-40 -70.5t-80 0t-40 70.5z" />
<glyph unicode="&#xc0;" horiz-adv-x="1421" d="M-16 0l643 1434h121l643 -1434h-119l-158 352h-856l-156 -352h-118zM301 455h770l-385 872zM457 1833v2h133l153 -246v-8h-98z" />
<glyph unicode="&#xc1;" horiz-adv-x="1421" d="M-16 0h118l156 352h856l158 -352h119l-643 1434h-121zM301 455l385 872l385 -872h-770zM621 1579v8l153 246h133v-2l-188 -252h-98z" />
<glyph unicode="&#xc2;" horiz-adv-x="1421" d="M-16 0h118l156 352h856l158 -352h119l-643 1434h-121zM301 455l385 872l385 -872h-770zM354 1554v15l291 270h82l291 -270v-15h-109l-223 197l-223 -197h-109z" />
<glyph unicode="&#xc3;" horiz-adv-x="1421" d="M-16 0l643 1434h121l643 -1434h-119l-158 352h-856l-156 -352h-118zM301 455h770l-385 872zM430 1630q7 59 44 96.5t85 41t100 -18.5l84 -45q26 -10 50.5 -12t45.5 15t29 50l70 -22q-6 -61 -43 -98t-85.5 -40t-100.5 19l-84 45q-36 20 -75 7.5t-50 -60.5z" />
<glyph unicode="&#xc4;" horiz-adv-x="1421" d="M-16 0h118l156 352h856l158 -352h119l-643 1434h-121zM301 455l385 872l385 -872h-770zM389 1661q0 50 40.5 70.5t81 0t40.5 -70.5t-40.5 -70.5t-81 0t-40.5 70.5zM827 1661q0 50 40.5 70.5t81 0t40.5 -70.5t-40.5 -70.5t-81 0t-40.5 70.5z" />
<glyph unicode="&#xc5;" horiz-adv-x="1421" d="M-16 0l637 1419q-69 18 -107.5 68t-38.5 127q0 92 63 144t152 52t154 -51.5t65 -144.5q0 -76 -42 -127.5t-113 -69.5l637 -1417h-119l-158 352h-856l-156 -352h-118zM301 455h770l-385 872zM571.5 1575q7.5 -36 39 -61t77.5 -25q48 0 81.5 25t41 61t0 72t-41 61t-81.5 25 q-46 0 -77.5 -25t-39 -61t0 -72z" />
<glyph unicode="&#xc6;" horiz-adv-x="1959" d="M25 0l872 1434h918v-101h-748v-561h707v-100h-707v-568h776v-104h-878v508h-512l-301 -508h-127zM512 608h453v742h-11z" />
<glyph unicode="&#xc7;" horiz-adv-x="1378" d="M55 709q-1 116 27.5 224t89.5 202t147 164t208 110.5t266 40.5t280.5 -55t241.5 -160l-76 -66q-90 90 -206 136.5t-240 46.5q-122 0 -225.5 -33.5t-178 -92.5t-126.5 -139.5t-77 -175t-24 -198.5q2 -128 43 -240t118 -199t198 -137.5t272 -50.5q124 0 240.5 46.5 t207.5 135.5l74 -69q-102 -102 -234 -157t-272 -58l-25 -109q60 3 104.5 -15t65 -48t29 -68t-3.5 -76q-19 -71 -79.5 -109t-133.5 -38q-66 0 -125 28.5t-88 81.5l59 58q56 -80 154 -80q46 0 82.5 20t46.5 58q19 62 -34.5 100.5t-160.5 15.5l-12 11l43 172q-161 11 -291 73 t-213 160.5t-127 223.5t-45 266z" />
<glyph unicode="&#xc8;" horiz-adv-x="1257" d="M131 0v1434h989v-105h-880v-557h839v-100h-839v-566h905v-106h-1014zM461 1851v2h133l154 -245v-9h-99z" />
<glyph unicode="&#xc9;" horiz-adv-x="1257" d="M131 0h1014v106h-905v566h839v100h-839v557h880v105h-989v-1434zM559 1593v9l154 245h133v-2l-189 -252h-98z" />
<glyph unicode="&#xca;" horiz-adv-x="1257" d="M131 0h1014v106h-905v566h839v100h-839v557h880v105h-989v-1434zM313 1583v14l291 271h82l291 -271v-14h-109l-223 197l-223 -197h-109z" />
<glyph unicode="&#xcb;" horiz-adv-x="1257" d="M131 0h1014v106h-905v566h839v100h-839v557h880v105h-989v-1434zM358 1675q0 50 40.5 70.5t81 0t40.5 -70.5t-40.5 -70.5t-81 0t-40.5 70.5zM797 1675q0 50 40.5 70.5t80.5 0t40 -70.5t-40 -70.5t-80.5 0t-40.5 70.5z" />
<glyph unicode="&#xcc;" horiz-adv-x="425" d="M-35 1845v2h133l154 -245v-9h-98zM133 0v1434h109v-1434h-109z" />
<glyph unicode="&#xcd;" horiz-adv-x="425" d="M129 1591v8l154 246h133v-2l-189 -252h-98zM133 0h109v1434h-109v-1434z" />
<glyph unicode="&#xce;" horiz-adv-x="425" d="M-119 1556v15l262 268h74l260 -268v-15h-96l-201 195l-200 -195h-99zM133 0h109v1434h-109v-1434z" />
<glyph unicode="&#xcf;" horiz-adv-x="425" d="M-57 1659q0 50 40.5 70.5t80.5 0t40 -70.5t-40.5 -70.5t-80.5 0t-40 70.5zM133 0h109v1434h-109v-1434zM270 1659q0 50 40.5 70.5t81 0t40.5 -70.5t-40.5 -70.5t-81 0t-40.5 70.5z" />
<glyph unicode="&#xd0;" horiz-adv-x="1452" d="M-16 649v101h137v684h485q141 0 260.5 -39t203 -106t143 -157t89 -191t31.5 -208q2 -111 -24 -216.5t-84.5 -199.5t-143 -164.5t-207 -111.5t-268.5 -41h-485v649h-137zM231 106h375q154 0 276 54.5t195.5 144.5t110.5 200t35 228q-2 91 -26.5 176.5t-74.5 162 t-121 133.5t-173 90.5t-222 33.5h-375v-579h334v-101h-334v-543z" />
<glyph unicode="&#xd1;" horiz-adv-x="1441" d="M133 0v1434h47l965 -1186v1186h108v-1434h-43l-966 1184v-1184h-111zM473 1624q7 59 44 96.5t85 41t100 -18.5l84 -45q26 -10 50.5 -12t45.5 15t29 50l70 -22q-6 -61 -43 -98t-85.5 -40t-100.5 19l-84 45q-36 20 -75 7.5t-50 -60.5z" />
<glyph unicode="&#xd2;" horiz-adv-x="1646" d="M70 719q0 117 28.5 224.5t87.5 201t143.5 163t203.5 109t260 39.5t260.5 -40t204 -109.5t143.5 -163.5t87.5 -202.5t27.5 -225.5q-1 -115 -29.5 -222t-88 -201.5t-143.5 -164.5t-203 -111t-259 -41t-259.5 41t-203.5 112t-143.5 165.5t-88 202.5t-28.5 223zM178 717 q1 -124 40.5 -237t114 -203.5t193.5 -144.5t267 -54t268 54t194.5 144.5t114 203.5t39.5 237q0 127 -39 240t-113.5 202.5t-194 142t-269.5 52.5q-120 0 -221.5 -34t-173.5 -93t-122.5 -139.5t-74.5 -174.5t-23 -196zM575 1855v3h134l153 -246v-8h-98z" />
<glyph unicode="&#xd3;" horiz-adv-x="1646" d="M70 719q0 -115 28.5 -223t88 -202.5t143.5 -165.5t203.5 -112t259.5 -41t259 41t203 111t143.5 164.5t88 201.5t29.5 222q1 117 -27.5 225.5t-87.5 202.5t-143.5 163.5t-204 109.5t-260.5 40t-260 -39.5t-203.5 -109t-143.5 -163t-87.5 -201t-28.5 -224.5zM178 717 q-1 102 23 196t74.5 174.5t122.5 139.5t173.5 93t221.5 34q150 0 269.5 -52.5t194 -142t113.5 -202.5t39 -240q0 -124 -39.5 -237t-114 -203.5t-194.5 -144.5t-268 -54t-267 54t-193.5 144.5t-114 203.5t-40.5 237zM735 1604v8l154 246h133v-3l-188 -251h-99z" />
<glyph unicode="&#xd4;" horiz-adv-x="1646" d="M70 719q0 -115 28.5 -223t88 -202.5t143.5 -165.5t203.5 -112t259.5 -41t259 41t203 111t143.5 164.5t88 201.5t29.5 222q1 117 -27.5 225.5t-87.5 202.5t-143.5 163.5t-204 109.5t-260.5 40t-260 -39.5t-203.5 -109t-143.5 -163t-87.5 -201t-28.5 -224.5zM178 717 q-1 102 23 196t74.5 174.5t122.5 139.5t173.5 93t221.5 34q150 0 269.5 -52.5t194 -142t113.5 -202.5t39 -240q0 -124 -39.5 -237t-114 -203.5t-194.5 -144.5t-268 -54t-267 54t-193.5 144.5t-114 203.5t-40.5 237zM475 1595v15l291 270h82l291 -270v-15h-109l-223 197 l-223 -197h-109z" />
<glyph unicode="&#xd5;" horiz-adv-x="1646" d="M70 719q0 117 28.5 224.5t87.5 201t143.5 163t203.5 109t260 39.5t260.5 -40t204 -109.5t143.5 -163.5t87.5 -202.5t27.5 -225.5q-1 -115 -29.5 -222t-88 -201.5t-143.5 -164.5t-203 -111t-259 -41t-259.5 41t-203.5 112t-143.5 165.5t-88 202.5t-28.5 223zM178 717 q1 -124 40.5 -237t114 -203.5t193.5 -144.5t267 -54t268 54t194.5 144.5t114 203.5t39.5 237q0 127 -39 240t-113.5 202.5t-194 142t-269.5 52.5q-120 0 -221.5 -34t-173.5 -93t-122.5 -139.5t-74.5 -174.5t-23 -196zM539 1657q7 59 44 96.5t85 41t100 -18.5l84 -45 q26 -10 50.5 -12t45.5 15t29 50l70 -23q-6 -61 -43.5 -98t-86 -40t-100.5 19l-84 46q-36 20 -75 7t-50 -61z" />
<glyph unicode="&#xd6;" horiz-adv-x="1646" d="M70 719q0 -115 28.5 -223t88 -202.5t143.5 -165.5t203.5 -112t259.5 -41t259 41t203 111t143.5 164.5t88 201.5t29.5 222q1 117 -27.5 225.5t-87.5 202.5t-143.5 163.5t-204 109.5t-260.5 40t-260 -39.5t-203.5 -109t-143.5 -163t-87.5 -201t-28.5 -224.5zM178 717 q-1 102 23 196t74.5 174.5t122.5 139.5t173.5 93t221.5 34q150 0 269.5 -52.5t194 -142t113.5 -202.5t39 -240q0 -124 -39.5 -237t-114 -203.5t-194.5 -144.5t-268 -54t-267 54t-193.5 144.5t-114 203.5t-40.5 237zM516 1683q0 50 40.5 70.5t81 0t40.5 -70.5t-40.5 -70.5 t-81 0t-40.5 70.5zM954 1683q0 50 40.5 70.5t81 0t40.5 -70.5t-40.5 -70.5t-81 0t-40.5 70.5z" />
<glyph unicode="&#xd7;" horiz-adv-x="870" d="M78 401l260 263l-254 251l63 64l254 -252l250 250l70 -68l-252 -252l254 -251l-64 -64l-253 252l-261 -260z" />
<glyph unicode="&#xd8;" horiz-adv-x="1646" d="M70 719q0 117 28.5 224.5t87.5 201t143.5 163t203.5 109t260 39.5q195 0 348 -78l102 181h111l-131 -228q144 -100 218.5 -263t74.5 -353q-1 -115 -29.5 -222t-88 -201.5t-143.5 -164.5t-203 -111t-259 -41q-162 0 -308 58l-110 -195h-109l135 238q-161 98 -246 270.5 t-85 372.5zM178 717q0 -167 72 -314t205 -233l635 1118q-135 66 -297 66q-120 0 -221.5 -34t-173.5 -93t-122.5 -139.5t-74.5 -174.5t-23 -196zM539 125q112 -47 254 -47q148 0 268 54t194.5 144.5t114 203.5t39.5 237q0 158 -61 295.5t-177 224.5z" />
<glyph unicode="&#xd9;" horiz-adv-x="1398" d="M131 543v891h109v-891q0 -111 38 -201.5t99.5 -145.5t141 -85t161.5 -30t161.5 30t141 85.5t99.5 145.5t38 201v891h109v-891q0 -136 -47 -245.5t-124.5 -177t-176 -104.5t-201.5 -37t-201.5 36.5t-176 104t-124.5 177.5t-47 246zM481 1837v2h133l154 -246v-8h-98z" />
<glyph unicode="&#xda;" horiz-adv-x="1398" d="M131 543q0 -136 47 -246t124.5 -177.5t176 -104t201.5 -36.5t201.5 37t176 104.5t124.5 177t47 245.5v891h-109v-891q0 -111 -38 -201t-99.5 -145.5t-141 -85.5t-161.5 -30t-161.5 30t-141 85t-99.5 145.5t-38 201.5v891h-109v-891zM596 1587v8l154 246h133v-2l-189 -252 h-98z" />
<glyph unicode="&#xdb;" horiz-adv-x="1398" d="M131 543q0 -136 47 -246t124.5 -177.5t176 -104t201.5 -36.5t201.5 37t176 104.5t124.5 177t47 245.5v891h-109v-891q0 -111 -38 -201t-99.5 -145.5t-141 -85.5t-161.5 -30t-161.5 30t-141 85t-99.5 145.5t-38 201.5v891h-109v-891zM348 1573v14l291 271h82l291 -271v-14 h-109l-223 196l-223 -196h-109z" />
<glyph unicode="&#xdc;" horiz-adv-x="1398" d="M131 543q0 -136 47 -246t124.5 -177.5t176 -104t201.5 -36.5t201.5 37t176 104.5t124.5 177t47 245.5v891h-109v-891q0 -111 -38 -201t-99.5 -145.5t-141 -85.5t-161.5 -30t-161.5 30t-141 85t-99.5 145.5t-38 201.5v891h-109v-891zM381 1677q0 50 40.5 70.5t81 0 t40.5 -70.5t-40.5 -70.5t-81 0t-40.5 70.5zM819 1677q0 50 40.5 70.5t81 0t40.5 -70.5t-40.5 -70.5t-81 0t-40.5 70.5z" />
<glyph unicode="&#xdd;" horiz-adv-x="1308" d="M8 1432l559 -859v-573h111v573l561 859v2h-129l-487 -754l-486 754h-129v-2zM541 1591v8l153 246h133v-2l-188 -252h-98z" />
<glyph unicode="&#xde;" horiz-adv-x="1339" d="M137 0v1432h103v-250h526q113 0 204 -40.5t147 -106.5t86.5 -150t30.5 -172t-30.5 -172t-86.5 -150t-147 -106.5t-204 -40.5h-524v-244h-105zM242 344h524q86 0 156 31.5t113 83.5t66 118t23 134.5t-23 134.5t-66 118t-113 83.5t-156 31.5h-524v-735z" />
<glyph unicode="&#xdf;" horiz-adv-x="1202" d="M117 0v1061q0 99 33.5 176t92 124t134.5 71t164 24q92 0 169 -21.5t138 -64.5t95 -115.5t34 -167.5q0 -110 -62 -192.5t-167 -108.5q164 -34 243.5 -140.5t79.5 -270.5q0 -119 -45 -206.5t-118 -132t-166 -61t-190.5 -2.5t-189.5 52v94q87 -42 176 -56.5t166.5 0 t138.5 52.5t96.5 105t35.5 153t-25.5 151t-66 103.5t-99.5 62.5t-117.5 32.5t-129.5 8.5h-175v90h166q47 0 91.5 6.5t93 24.5t84.5 46.5t59 77t23 111.5q0 67 -21 117.5t-53 80t-78 48t-89.5 25t-92.5 6.5q-89 0 -153 -22.5t-101 -64.5t-55 -95.5t-21 -122.5v-1059h-98z" />
<glyph unicode="&#xe0;" d="M57 506q0 151 69.5 270.5t186.5 183.5t258 64q129 0 241 -59.5t173 -173.5v221h100v-1012h-100v215q-71 -115 -179 -173t-235 -58q-141 0 -258 65t-186.5 185.5t-69.5 271.5zM158 506q0 -187 119 -305.5t294 -118.5q102 0 184.5 36.5t133 96t78 135.5t27.5 155t-27.5 155 t-78 135.5t-133 96t-184.5 36.5q-175 0 -294 -117.5t-119 -304.5zM389 1448v2h133l154 -246v-8h-98z" />
<glyph unicode="&#xe1;" d="M57 506q0 -151 69.5 -271.5t186.5 -185.5t258 -65q127 0 235 58t179 173v-215h100v1012h-100v-221q-61 114 -173 173.5t-241 59.5q-141 0 -258 -64t-186.5 -183.5t-69.5 -270.5zM158 506q0 187 119 304.5t294 117.5q102 0 184.5 -36.5t133 -96t78 -135.5t27.5 -155 t-27.5 -155t-78 -135.5t-133 -96t-184.5 -36.5q-175 0 -294 118.5t-119 305.5zM508 1192v8l154 246h133v-2l-189 -252h-98z" />
<glyph unicode="&#xe2;" d="M57 506q0 -151 69.5 -271.5t186.5 -185.5t258 -65q127 0 235 58t179 173v-215h100v1012h-100v-221q-61 114 -173 173.5t-241 59.5q-141 0 -258 -64t-186.5 -183.5t-69.5 -270.5zM158 506q0 187 119 304.5t294 117.5q102 0 184.5 -36.5t133 -96t78 -135.5t27.5 -155 t-27.5 -155t-78 -135.5t-133 -96t-184.5 -36.5q-175 0 -294 118.5t-119 305.5zM260 1155v14l291 271h82l291 -271v-14h-109l-223 197l-223 -197h-109z" />
<glyph unicode="&#xe3;" d="M57 506q0 151 69.5 270.5t186.5 183.5t258 64q129 0 241 -59.5t173 -173.5v221h100v-1012h-100v215q-71 -115 -179 -173t-235 -58q-141 0 -258 65t-186.5 185.5t-69.5 271.5zM158 506q0 -187 119 -305.5t294 -118.5q102 0 184.5 36.5t133 96t78 135.5t27.5 155t-27.5 155 t-78 135.5t-133 96t-184.5 36.5q-175 0 -294 -117.5t-119 -304.5zM342 1298q7 59 44 96.5t85 41t100 -18.5l84 -45q26 -10 50.5 -12t45.5 15t29 50l70 -22q-6 -61 -43 -98t-85.5 -40t-100.5 19l-84 45q-36 20 -75 7.5t-50 -60.5z" />
<glyph unicode="&#xe4;" d="M57 506q0 -151 69.5 -271.5t186.5 -185.5t258 -65q127 0 235 58t179 173v-215h100v1012h-100v-221q-61 114 -173 173.5t-241 59.5q-141 0 -258 -64t-186.5 -183.5t-69.5 -270.5zM158 506q0 187 119 304.5t294 117.5q102 0 184.5 -36.5t133 -96t78 -135.5t27.5 -155 t-27.5 -155t-78 -135.5t-133 -96t-184.5 -36.5q-175 0 -294 118.5t-119 305.5zM311 1368q0 50 40.5 70.5t81 0t40.5 -70.5t-40.5 -70.5t-81 0t-40.5 70.5zM750 1368q0 50 40 70.5t80.5 0t40.5 -70.5t-40.5 -70.5t-80.5 0t-40 70.5z" />
<glyph unicode="&#xe5;" d="M57 506q0 151 69.5 270.5t186.5 183.5t258 64q129 0 241 -59.5t173 -173.5v221h100v-1012h-100v215q-71 -115 -179 -173t-235 -58q-141 0 -258 65t-186.5 185.5t-69.5 271.5zM158 506q0 -187 119 -305.5t294 -118.5q102 0 184.5 36.5t133 96t78 135.5t27.5 155t-27.5 155 t-78 135.5t-133 96t-184.5 36.5q-175 0 -294 -117.5t-119 -304.5zM385 1335q0 88 62 137.5t151 49.5t154 -49.5t65 -137.5q0 -90 -62 -141t-159 -51t-154 51t-57 141zM475 1335.5q0 -42.5 32 -77.5t89 -35q48 0 81.5 23t41 56.5t0 66.5t-41 56t-81.5 23q-57 0 -89 -35 t-32 -77.5z" />
<glyph unicode="&#xe6;" horiz-adv-x="2134" d="M57 506q0 151 69.5 270.5t186.5 183.5t258 64q130 0 245 -60t175 -173v221h84v-213q64 107 171.5 168t240.5 61q87 0 165 -21t145 -66t113 -110.5t67 -161t10 -210.5h-916q15 -173 134 -274t282 -101q105 0 207 41t157 113l72 -58q-71 -93 -190 -143.5t-246 -50.5 q-135 0 -244 57.5t-172 161.5v-205h-84v215q-71 -115 -180 -173t-236 -58q-141 0 -258 65t-186.5 185.5t-69.5 271.5zM158 506q0 -187 119 -305.5t294 -118.5q102 0 185 36.5t133.5 96t78 135.5t27.5 155t-27.5 155t-78 135.5t-133.5 96t-185 36.5q-175 0 -294 -117.5 t-119 -304.5zM1071 547h825q-1 185 -112 287t-297 102q-163 0 -281 -104.5t-135 -284.5z" />
<glyph unicode="&#xe7;" horiz-adv-x="1034" d="M53 506q0 234 147.5 375t372.5 141q101 0 197.5 -39t171.5 -113l-65 -63q-60 60 -139.5 90.5t-164.5 30.5q-86 0 -162 -28t-134 -80.5t-91.5 -133.5t-33.5 -180t33.5 -180t91.5 -133.5t134 -80.5t162 -28q83 0 161.5 32t139.5 93l68 -68q-75 -75 -171 -113t-198 -38h-2 l-22 -99q79 4 128.5 -27.5t63 -78.5t0.5 -100q-19 -71 -78.5 -107.5t-132.5 -36.5q-66 0 -124 28t-87 81l58 55q56 -80 153 -80q46 0 82.5 20t46.5 58q19 62 -33 101t-159 16l-12 10l37 166q-191 26 -315 163t-124 347z" />
<glyph unicode="&#xe8;" horiz-adv-x="1216" d="M55 506q0 148 69 268.5t186.5 187t258.5 66.5q87 0 165 -21t145 -66t113 -110.5t67 -161t10 -210.5h-911q15 -173 131.5 -274t279.5 -101q105 0 207.5 41t157.5 113l72 -58q-71 -93 -190.5 -143.5t-246.5 -50.5q-143 0 -259 62t-185.5 181.5t-69.5 276.5zM158 547h821 q-1 185 -112.5 287t-297.5 102q-162 0 -278 -104t-133 -285zM395 1434v2h133l154 -246v-8h-98z" />
<glyph unicode="&#xe9;" horiz-adv-x="1216" d="M55 506q0 -157 69.5 -276.5t185.5 -181.5t259 -62q127 0 246.5 50.5t190.5 143.5l-72 58q-55 -72 -157.5 -113t-207.5 -41q-163 0 -279.5 101t-131.5 274h911q11 115 -10 210.5t-67 161t-113 110.5t-145 66t-165 21q-141 0 -258.5 -66.5t-186.5 -187t-69 -268.5zM158 547 q17 181 133 285t278 104q186 0 297.5 -102t112.5 -287h-821zM500 1182v8l153 246h133v-2l-188 -252h-98z" />
<glyph unicode="&#xea;" horiz-adv-x="1216" d="M55 506q0 -157 69.5 -276.5t185.5 -181.5t259 -62q127 0 246.5 50.5t190.5 143.5l-72 58q-55 -72 -157.5 -113t-207.5 -41q-163 0 -279.5 101t-131.5 274h911q11 115 -10 210.5t-67 161t-113 110.5t-145 66t-165 21q-141 0 -258.5 -66.5t-186.5 -187t-69 -268.5zM158 547 q17 181 133 285t278 104q186 0 297.5 -102t112.5 -287h-821zM254 1151v14l291 271h82l291 -271v-14h-109l-223 197l-224 -197h-108z" />
<glyph unicode="&#xeb;" horiz-adv-x="1216" d="M55 506q0 -157 69.5 -276.5t185.5 -181.5t259 -62q127 0 246.5 50.5t190.5 143.5l-72 58q-55 -72 -157.5 -113t-207.5 -41q-163 0 -279.5 101t-131.5 274h911q11 115 -10 210.5t-67 161t-113 110.5t-145 66t-165 21q-141 0 -258.5 -66.5t-186.5 -187t-69 -268.5zM158 547 q17 181 133 285t278 104q186 0 297.5 -102t112.5 -287h-821zM285 1354q0 50 40.5 70.5t80.5 0t40 -70.5t-40 -70.5t-80.5 0t-40.5 70.5zM723 1354q0 50 40.5 70.5t81 0t40.5 -70.5t-40.5 -70.5t-81 0t-40.5 70.5z" />
<glyph unicode="&#xec;" horiz-adv-x="352" d="M-18 1434v2h114l115 -240v-8h-94zM106 0v1016h101v-1016h-101z" />
<glyph unicode="&#xed;" horiz-adv-x="360" d="M84 1188v8l115 240h114v-2l-135 -246h-94zM94 0h101v1016h-101v-1016z" />
<glyph unicode="&#xee;" horiz-adv-x="393" d="M-61 1176v14l200 246h64l190 -246v-14h-86l-137 172l-143 -172h-88zM113 0h100v1016h-100v-1016z" />
<glyph unicode="&#xef;" horiz-adv-x="395" d="M-55 1348q0 46 38 65t76.5 0t38.5 -65t-38 -65t-76.5 0t-38.5 65zM113 0h100v1016h-100v-1016zM227 1348q0 46 38 65t76 0t38 -65t-38 -65t-76 0t-38 65z" />
<glyph unicode="&#xf0;" horiz-adv-x="1220" d="M63 488q0 96 34 187.5t96 163.5t164 116t227 44q213 0 379 -159q-30 102 -110.5 200t-190.5 172l-87 -122l-65 45l84 120q-113 63 -213 88l29 87q136 -45 237 -101l96 137l66 -45l-94 -133q382 -257 389 -770q3 -241 -138.5 -391t-381.5 -150q-125 0 -227 44t-164 116 t-96 163.5t-34 187.5zM166 489.5q0 -78.5 27 -153.5t77 -133.5t131.5 -94.5t182.5 -36t182.5 36t131.5 94.5t77 133.5t27 153.5t-27 153.5t-77 133.5t-131.5 94.5t-182.5 36t-182.5 -36t-131.5 -94.5t-77 -133.5t-27 -153.5z" />
<glyph unicode="&#xf1;" horiz-adv-x="1177" d="M113 0v1012h98v-181q56 99 151.5 148t208.5 51q206 0 331.5 -119t125.5 -327v-584h-100v582q0 169 -97 260.5t-264 89.5q-156 -1 -255 -106t-99 -263v-563h-100zM315 1300q7 55 44 89.5t85 38t99 -16.5l84 -43q36 -18 75 -6.5t50 55.5l69 -20q-6 -56 -43 -90.5 t-85.5 -37.5t-100.5 17l-84 43q-34 18 -73 6t-50 -55z" />
<glyph unicode="&#xf2;" horiz-adv-x="1212" d="M66 504q0 157 69 278t185.5 184.5t259.5 63.5t259.5 -63.5t185.5 -184.5t69 -278q0 -235 -147 -376.5t-367 -141.5t-367 141.5t-147 376.5zM164 504q0 -191 119.5 -305.5t296.5 -114.5t296 114.5t119 305.5q0 192 -119.5 312t-295.5 120t-296 -120t-120 -312zM377 1444v2 h133l154 -238v-8h-99z" />
<glyph unicode="&#xf3;" horiz-adv-x="1212" d="M66 504q0 -235 147 -376.5t367 -141.5t367 141.5t147 376.5q0 157 -69 278t-185.5 184.5t-259.5 63.5t-259.5 -63.5t-185.5 -184.5t-69 -278zM164 504q0 192 120 312t296 120t295.5 -120t119.5 -312q0 -191 -119 -305.5t-296 -114.5t-296.5 114.5t-119.5 305.5zM514 1188 v8l148 229h129v-2l-183 -235h-94z" />
<glyph unicode="&#xf4;" horiz-adv-x="1212" d="M66 504q0 -235 147 -376.5t367 -141.5t367 141.5t147 376.5q0 157 -69 278t-185.5 184.5t-259.5 63.5t-259.5 -63.5t-185.5 -184.5t-69 -278zM164 504q0 192 120 312t296 120t295.5 -120t119.5 -312q0 -191 -119 -305.5t-296 -114.5t-296.5 114.5t-119.5 305.5zM262 1171 v15l291 270h82l291 -270v-15h-109l-223 197l-223 -197h-109z" />
<glyph unicode="&#xf5;" horiz-adv-x="1212" d="M66 504q0 157 69 278t185.5 184.5t259.5 63.5t259.5 -63.5t185.5 -184.5t69 -278q0 -235 -147 -376.5t-367 -141.5t-367 141.5t-147 376.5zM164 504q0 -191 119.5 -305.5t296.5 -114.5t296 114.5t119 305.5q0 192 -119.5 312t-295.5 120t-296 -120t-120 -312zM336 1294 q7 57 44 93t86 39.5t101 -17.5l84 -43q26 -12 50.5 -12.5t45.5 15.5t29 48l70 -20q-6 -59 -43.5 -95.5t-86 -39t-100.5 19.5l-84 43q-37 18 -76 6.5t-50 -57.5z" />
<glyph unicode="&#xf6;" horiz-adv-x="1212" d="M66 504q0 -235 147 -376.5t367 -141.5t367 141.5t147 376.5q0 157 -69 278t-185.5 184.5t-259.5 63.5t-259.5 -63.5t-185.5 -184.5t-69 -278zM164 504q0 192 120 312t296 120t295.5 -120t119.5 -312q0 -191 -119 -305.5t-296 -114.5t-296.5 114.5t-119.5 305.5zM291 1317 q0 50 40.5 70.5t81 0t40.5 -70.5t-40.5 -70.5t-81 0t-40.5 70.5zM729 1317q0 50 40.5 70.5t81 0t40.5 -70.5t-40.5 -70.5t-81 0t-40.5 70.5z" />
<glyph unicode="&#xf7;" horiz-adv-x="993" d="M74 633h827v102h-827v-102zM412 367q0 50 40 70.5t80.5 0t40.5 -70.5t-40.5 -70.5t-80.5 0t-40 70.5zM412 991q0 50 40 70.5t80.5 0t40.5 -70.5t-40.5 -70.5t-80.5 0t-40 70.5z" />
<glyph unicode="&#xf8;" horiz-adv-x="1212" d="M66 504q0 157 69 278t185.5 184.5t259.5 63.5q128 0 237 -53l76 127h104l-104 -174q93 -69 147 -179.5t54 -246.5q0 -235 -147 -376.5t-367 -141.5q-127 0 -226 45l-84 -142h-102l111 185q-100 66 -156.5 176.5t-56.5 253.5zM164 504q0 -114 44 -202t122 -142l436 733 q-88 43 -186 43q-176 0 -296 -120t-120 -312zM408 117q73 -33 172 -33q177 0 296 114.5t119 305.5q0 108 -40.5 196t-112.5 146z" />
<glyph unicode="&#xf9;" horiz-adv-x="1177" d="M111 430v584h100v-582q0 -169 96.5 -260.5t263.5 -89.5q156 1 255.5 106t99.5 263v563h100v-1014h-98v182q-56 -99 -152 -147.5t-209 -50.5q-206 0 -331 119t-125 327zM379 1434v2h133l154 -246v-8h-99z" />
<glyph unicode="&#xfa;" horiz-adv-x="1177" d="M111 430q0 -208 125 -327t331 -119q113 2 209 50.5t152 147.5v-182h98v1014h-100v-563q0 -158 -99.5 -263t-255.5 -106q-167 -2 -263.5 89.5t-96.5 260.5v582h-100v-584zM506 1182v8l153 246h134v-2l-189 -252h-98z" />
<glyph unicode="&#xfb;" horiz-adv-x="1177" d="M111 430q0 -208 125 -327t331 -119q113 2 209 50.5t152 147.5v-182h98v1014h-100v-563q0 -158 -99.5 -263t-255.5 -106q-167 -2 -263.5 89.5t-96.5 260.5v582h-100v-584zM256 1161v15l281 260h79l281 -260v-15h-104l-218 189l-215 -189h-104z" />
<glyph unicode="&#xfc;" horiz-adv-x="1177" d="M111 430q0 -208 125 -327t331 -119q113 2 209 50.5t152 147.5v-182h98v1014h-100v-563q0 -158 -99.5 -263t-255.5 -106q-167 -2 -263.5 89.5t-96.5 260.5v582h-100v-584zM287 1354q0 50 40.5 70.5t81 0t40.5 -70.5t-40.5 -70.5t-81 0t-40.5 70.5zM725 1354 q0 50 40.5 70.5t81 0t40.5 -70.5t-40.5 -70.5t-81 0t-40.5 70.5z" />
<glyph unicode="&#xfd;" horiz-adv-x="1058" d="M35 1012l405 -1000l-186 -434h106l617 1434h-109l-254 -596l-116 -295l-119 293l-236 598h-108zM436 1196v8l144 232h127v-2l-179 -238h-92z" />
<glyph unicode="&#xfe;" horiz-adv-x="1273" d="M119 -422v1854h94l2 -660q61 117 177.5 185.5t262.5 68.5q214 -8 353 -146t139 -374q0 -124 -40 -224.5t-110 -165.5t-163 -99.5t-201 -34.5q-133 0 -244 64t-174 187v-655h-96zM223 504q0 -185 117.5 -305.5t292.5 -120.5q180 0 297 111.5t117 316.5t-116.5 314.5 t-297.5 109.5q-177 0 -293.5 -120t-116.5 -306z" />
<glyph unicode="&#xff;" horiz-adv-x="1058" d="M35 1012l405 -1000l-186 -434h106l617 1434h-109l-254 -596l-116 -295l-119 293l-236 598h-108zM229 1366q0 36 24 56.5t53 20.5t53 -20.5t24 -56.5q0 -47 -38.5 -66.5t-77 0t-38.5 66.5zM647 1366q0 36 24 56.5t53 20.5t53 -20.5t24 -56.5q0 -47 -38.5 -66.5t-77 0 t-38.5 66.5z" />
<glyph unicode="&#x152;" horiz-adv-x="1998" d="M109 719q0 117 28.5 223.5t87 198.5t143 160t203.5 106.5t260 38.5q79 0 146 -12h831v-99h-741v-563h696v-100h-696v-574h772v-98h-866q-75 -10 -142 -10q-140 0 -259 39.5t-203.5 108t-143.5 161t-87.5 199t-28.5 221.5zM217 717q1 -124 40.5 -236.5t113.5 -202 t193 -143t267 -53.5q75 0 142 12v1254q-67 12 -142 12q-120 0 -221.5 -34.5t-173.5 -94.5t-122 -141.5t-74 -176t-23 -196.5z" />
<glyph unicode="&#x153;" horiz-adv-x="2209" d="M102 504q0 157 69 278t185.5 184.5t259.5 63.5q160 0 280 -81.5t175 -227.5q55 138 176 222.5t275 84.5q110 0 203 -34t163.5 -101.5t104.5 -179t20 -254.5q-594 0 -897 -2q15 -172 129.5 -272.5t276.5 -100.5q104 0 202.5 40.5t153.5 113.5l72 -58q-71 -94 -186.5 -144 t-241.5 -50q-155 0 -276.5 82t-174.5 217q-55 -142 -175 -220.5t-280 -78.5q-220 0 -367 141.5t-147 376.5zM201 504q0 -191 119 -305.5t296 -114.5t294.5 114t117.5 306q0 193 -118.5 312.5t-293.5 119.5q-176 0 -295.5 -120t-119.5 -312zM1116 547h807q-1 185 -108.5 287 t-292.5 102q-162 0 -275.5 -104t-130.5 -285z" />
<glyph unicode="&#x178;" horiz-adv-x="1308" d="M8 1432l559 -859v-573h111v573l561 859v2h-129l-487 -754l-486 754h-129v-2zM322 1651q0 50 40 70.5t80.5 0t40.5 -70.5t-40.5 -70.5t-80.5 0t-40 70.5zM760 1651q0 50 40.5 70.5t81 0t40.5 -70.5t-40.5 -70.5t-81 0t-40.5 70.5z" />
<glyph unicode="&#x2c6;" horiz-adv-x="862" d="M74 1151v14l291 271h81l291 -271v-14h-108l-223 197l-224 -197h-108z" />
<glyph unicode="&#x2dc;" horiz-adv-x="665" d="M63 1309q7 59 44 96t85.5 40.5t100.5 -18.5l84 -45q26 -10 50.5 -11.5t45.5 15.5t29 50l69 -23q-6 -61 -43 -98t-85.5 -40t-100.5 19l-84 45q-36 20 -75 7.5t-50 -60.5z" />
<glyph unicode="&#x2000;" horiz-adv-x="940" />
<glyph unicode="&#x2001;" horiz-adv-x="1880" />
<glyph unicode="&#x2002;" horiz-adv-x="940" />
<glyph unicode="&#x2003;" horiz-adv-x="1880" />
<glyph unicode="&#x2004;" horiz-adv-x="626" />
<glyph unicode="&#x2005;" horiz-adv-x="470" />
<glyph unicode="&#x2006;" horiz-adv-x="313" />
<glyph unicode="&#x2007;" horiz-adv-x="313" />
<glyph unicode="&#x2008;" horiz-adv-x="235" />
<glyph unicode="&#x2009;" horiz-adv-x="376" />
<glyph unicode="&#x200a;" horiz-adv-x="104" />
<glyph unicode="&#x2010;" horiz-adv-x="978" d="M119 592v106h717v-106h-717z" />
<glyph unicode="&#x2011;" horiz-adv-x="978" d="M119 592v106h717v-106h-717z" />
<glyph unicode="&#x2012;" horiz-adv-x="978" d="M119 592v106h717v-106h-717z" />
<glyph unicode="&#x2013;" horiz-adv-x="1124" d="M66 573v105h913v-105h-913z" />
<glyph unicode="&#x2014;" horiz-adv-x="1339" d="M80 573v105h1132v-105h-1132z" />
<glyph unicode="&#x2018;" horiz-adv-x="419" d="M86 1055l133 385h90l-106 -385h-117z" />
<glyph unicode="&#x2019;" horiz-adv-x="409" d="M84 1051l106 385h117l-133 -385h-90z" />
<glyph unicode="&#x201a;" horiz-adv-x="405" d="M78 -182l63 170q-49 18 -49 73q0 50 40.5 70.5t81 0t40.5 -70.5q0 -16 -6 -34l-82 -209h-88z" />
<glyph unicode="&#x201c;" horiz-adv-x="704" d="M82 1051l133 385h90l-106 -385h-117zM340 1051l133 385h90l-106 -385h-117z" />
<glyph unicode="&#x201d;" horiz-adv-x="686" d="M84 1051l106 385h117l-133 -385h-90zM342 1051l107 385h116l-133 -385h-90z" />
<glyph unicode="&#x201e;" horiz-adv-x="651" d="M78 -182l63 170q-49 18 -49 73q0 50 40.5 70.5t81 0t40.5 -70.5q0 -16 -6 -34l-82 -209h-88zM367 -182l63 170q-49 18 -49 73q0 50 40.5 70.5t81 0t40.5 -70.5q0 -16 -6 -34l-82 -209h-88z" />
<glyph unicode="&#x2022;" horiz-adv-x="675" d="M100 715q0 88 56.5 142t144.5 54q85 0 141 -54t56 -142t-56 -142.5t-141 -54.5q-87 0 -144 54.5t-57 142.5z" />
<glyph unicode="&#x2026;" horiz-adv-x="1085" d="M74 61q0 50 40.5 70.5t81 0t40.5 -70.5t-40.5 -70.5t-81 0t-40.5 70.5zM428 61q0 50 40.5 70.5t81 0t40.5 -70.5t-40.5 -70.5t-81 0t-40.5 70.5zM778 61q0 50 40.5 70.5t81 0t40.5 -70.5t-40.5 -70.5t-81 0t-40.5 70.5z" />
<glyph unicode="&#x202f;" horiz-adv-x="376" />
<glyph unicode="&#x2039;" horiz-adv-x="608" d="M61 649l283 449h107v-11l-277 -438l277 -438v-12h-107z" />
<glyph unicode="&#x203a;" horiz-adv-x="608" d="M102 199v12l277 438l-277 438v11h107l283 -449l-283 -450h-107z" />
<glyph unicode="&#x205f;" horiz-adv-x="470" />
<glyph unicode="&#x20ac;" horiz-adv-x="1200" d="M25 557v94h118q-2 14 -2 58q0 43 2 63h-118v94h131q17 126 69.5 231t137.5 184.5t211 124t280 44.5q89 0 203 -31l-23 -88q-92 25 -180 25q-256 0 -402.5 -126t-185.5 -364h559l-26 -94h-547q-2 -18 -2 -59q0 -48 2 -62h518l-20 -94h-484q34 -229 182 -350t406 -121 q116 0 225 41l29 -98q-127 -45 -254 -45q-306 0 -477.5 150t-220.5 423h-131z" />
<glyph unicode="&#x2122;" horiz-adv-x="1552" d="M61 1352v82h560v-82h-234v-492h-96v492h-230zM731 860v574h90l236 -301l237 301h86v-574h-96v414l-221 -270h-19l-217 278v-422h-96z" />
<glyph unicode="&#xe000;" horiz-adv-x="1013" d="M0 0v1014h1014v-1014h-1014z" />
<glyph unicode="&#xfb01;" horiz-adv-x="983" d="M10 924v88h207v82q0 86 28.5 155.5t76 112.5t110 67t129 23.5t135.5 -24.5t127 -70l-45 -76q-38 28 -86.5 47t-100 25.5t-101 -5.5t-88.5 -40t-63 -83.5t-24 -131.5v-82h510v-1012h-100v924h-410v-924h-98v924h-207z" />
<glyph unicode="&#xfb02;" horiz-adv-x="952" d="M10 918v86h207v90q0 171 70.5 258.5t232.5 87.5q146 0 248 -97v-1343h-100v1305q-57 43 -152 43q-101 0 -151 -57t-50 -197v-90h260v-86h-260v-918h-98v918h-207z" />
</font>
</defs>
</svg>
