<?xml version="1.0" standalone="no"?>
<!DOCTYPE svg PUBLIC "-//W3C//DTD SVG 1.1//EN" "http://www.w3.org/Graphics/SVG/1.1/DTD/svg11.dtd" >
<svg xmlns="http://www.w3.org/2000/svg">
<metadata></metadata>
<defs>
<font id="klavika_ch_regular_condenseRg" horiz-adv-x="956" >
<font-face units-per-em="2048" ascent="1536" descent="-512" />
<missing-glyph horiz-adv-x="382" />
<glyph unicode="&#xfb01;" horiz-adv-x="761" d="M-119 -334q76 87 100.5 135t41.5 144l161 903h-123l23 135h123l39 209q23 127 87 183.5t185 56.5q115 0 230 -56l-37 -123q-37 14 -58.5 21.5t-58 13.5t-78.5 6q-54 0 -80 -26t-37 -86l-34 -199h301l67 10l-176 -993h-151l147 848h-213l-160 -893q-15 -79 -24 -116.5 t-30.5 -84.5t-54.5 -85t-91 -93z" />
<glyph unicode="&#xfb02;" horiz-adv-x="790" d="M-119 -334q76 87 100.5 135t41.5 144l161 903h-123l23 135h123l39 209q23 127 87 183.5t185 56.5q93 0 189 -35l129 20l-250 -1417h-156l225 1276q-70 18 -139 18q-54 0 -80 -26t-37 -86l-34 -199h167l-20 -135h-172l-160 -893q-15 -79 -24 -116.5t-30.5 -84.5t-54.5 -85 t-91 -93z" />
<glyph horiz-adv-x="2048" />
<glyph horiz-adv-x="2048" />
<glyph unicode="&#xd;" horiz-adv-x="2048" />
<glyph unicode=" "  horiz-adv-x="382" />
<glyph unicode="&#x09;" horiz-adv-x="382" />
<glyph unicode="&#xa0;" horiz-adv-x="382" />
<glyph unicode="!" horiz-adv-x="399" d="M31 0l35 205h155l-35 -205h-155zM127 367l27 342l114 655h156l-115 -655l-96 -342h-86z" />
<glyph unicode="&#x22;" horiz-adv-x="665" d="M170 860l88 504h135l-88 -504h-135zM477 860l88 504h135l-88 -504h-135z" />
<glyph unicode="#" horiz-adv-x="1077" d="M70 406l26 118h164l78 348h-168l27 119h168l84 373h129l-84 -373h276l84 373h129l-84 -373h158l-27 -119h-158l-77 -348h159l-26 -118h-162l-90 -406h-129l90 406h-277l-90 -406h-129l90 406h-161zM389 524h277l77 348h-276z" />
<glyph unicode="$" horiz-adv-x="778" d="M29 47l26 133q115 -39 232 -39q108 0 151 48.5t64 170.5q17 74 11.5 124t-38 85t-113.5 82q-93 54 -135.5 110t-46.5 124t13 159q26 144 90.5 219.5t185.5 90.5l37 202h143l-37 -200q86 -4 172 -31l-28 -131q-104 29 -205 29q-100 0 -142.5 -40t-62.5 -151 q-9 -47 -10.5 -74.5t1.5 -52t20.5 -43.5t40.5 -37.5t67 -46.5q54 -34 87.5 -59.5t60.5 -55.5t39 -57.5t17 -67t1 -83.5t-15 -107q-13 -69 -33 -122t-53.5 -100.5t-86.5 -77t-124 -38.5l-34 -200h-144l35 198q-77 7 -186 39z" />
<glyph unicode="%" horiz-adv-x="1458" d="M158 827q0 21 6 56l45 256q22 124 89 187t187 63q107 0 163.5 -54.5t56.5 -146.5q0 -20 -7 -60l-43 -245q-21 -123 -88 -188.5t-192 -65.5q-103 0 -160 53.5t-57 144.5zM291 836q0 -93 92 -93q61 0 94 30.5t45 98.5l47 267q4 24 4 47q0 48 -24.5 68t-73.5 20 q-63 0 -92 -29t-43 -106l-45 -256q-4 -25 -4 -47zM356 31l684 1358l105 -56l-686 -1358zM799 178q0 20 6 55l45 256q22 124 89 187t187 63q107 0 163.5 -54t56.5 -146q0 -20 -7 -60l-43 -246q-21 -123 -88 -188t-192 -65q-103 0 -160 53.5t-57 144.5zM932 186q0 -92 92 -92 q61 0 94 30.5t45 98.5l47 266q4 24 4 48q0 48 -24.5 68t-73.5 20q-63 0 -92 -29.5t-43 -106.5l-45 -256q-4 -25 -4 -47z" />
<glyph unicode="&#x26;" horiz-adv-x="1091" d="M57 201q0 30 4 55l15 80q9 49 23.5 87t29.5 64t47.5 57t57.5 50.5t79 58.5l56 41l-33 54q-30 47 -46.5 76t-34 80.5t-17.5 96.5q0 22 4 46l14 79q25 136 107 197t235 61q117 0 187.5 -55t70.5 -162q0 -27 -6 -61l-10 -59q-15 -93 -60 -161.5t-141 -140.5l-82 -61 l172 -268l182 246l97 -76l-211 -279l196 -307h-182l-113 176q-45 -50 -78.5 -80.5t-79 -59.5t-98.5 -42.5t-118 -13.5q-127 0 -197 60t-70 161zM209 213q0 -57 35 -80.5t102 -23.5q74 0 129.5 34.5t118.5 104.5l35 37l-195 305l-61 -49q-45 -35 -67.5 -54.5t-45 -56.5 t-31.5 -82l-16 -92q-4 -23 -4 -43zM387 1008q0 -47 41 -119l66 -107l90 74q95 79 114 188l15 84q4 24 4 35q0 97 -131 97q-89 0 -129 -33.5t-51 -100.5l-15 -82q-4 -24 -4 -36z" />
<glyph unicode="'" horiz-adv-x="358" d="M170 860l88 504h135l-88 -504h-135z" />
<glyph unicode="(" horiz-adv-x="604" d="M143 387q0 602 482 1251l108 -75q-100 -148 -172 -275t-135 -275t-95 -304.5t-32 -319.5q0 -265 117 -610l-129 -58q-75 181 -109.5 339.5t-34.5 326.5z" />
<glyph unicode=")" horiz-adv-x="602" d="M-76 -203q100 148 172 275t135 275t95 304.5t32 319.5q0 268 -116 610l129 57q74 -180 108.5 -338.5t34.5 -326.5q0 -605 -481 -1252z" />
<glyph unicode="*" horiz-adv-x="772" d="M178 1073l15 88h233l-84 207l82 35l80 -205l153 205l64 -51l-148 -191h228l-15 -88h-231l84 -203l-82 -34l-82 196l-151 -196l-60 51l144 186h-230z" />
<glyph unicode="+" horiz-adv-x="937" d="M119 637v131h295v360h147v-360h295v-131h-295v-361h-147v361h-295z" />
<glyph unicode="," horiz-adv-x="378" d="M-43 -213l113 213h-52l35 205h156l-35 -205l-156 -248z" />
<glyph unicode="-" horiz-adv-x="624" d="M125 596l22 135h402l-23 -135h-401z" />
<glyph unicode="." horiz-adv-x="380" d="M20 0l35 205h156l-35 -205h-156z" />
<glyph unicode="/" horiz-adv-x="770" d="M-43 -242l719 1626h153l-718 -1626h-154z" />
<glyph unicode="0" horiz-adv-x="927" d="M68 246q0 42 6 80l125 710q31 175 130.5 264t276.5 89q153 0 232.5 -73.5t79.5 -201.5q0 -30 -9 -82l-125 -706q-61 -351 -409 -351q-149 0 -228 71.5t-79 199.5zM223 254q0 -73 38.5 -108t127.5 -35q106 0 163.5 53t76.5 162l125 706q6 38 6 76q0 73 -39.5 109 t-128.5 36q-107 0 -163 -54.5t-75 -164.5l-125 -708q-6 -35 -6 -72z" />
<glyph unicode="1" horiz-adv-x="559" d="M121 1122l321 242h131l-239 -1364h-156l203 1151l-197 -129z" />
<glyph unicode="2" horiz-adv-x="788" d="M-14 0l20 123q51 58 391 463q92 111 125 157t54.5 99.5t37.5 144.5l13 70q8 46 8 73q0 66 -38.5 94.5t-127.5 28.5q-104 0 -219 -39l-12 136q140 39 282 39q131 0 201 -63t70 -181q0 -35 -9 -88l-14 -80q-25 -142 -75.5 -231t-178.5 -234l-334 -373h451l-23 -139h-622z " />
<glyph unicode="3" horiz-adv-x="782" d="M-10 16l28 134q125 -39 234 -39q118 0 168.5 47t66.5 145l25 137q6 34 6 58q0 67 -39.5 97t-126.5 30h-170l25 137h147q107 0 160 39t68 127l26 153q6 38 6 58q0 63 -38.5 88.5t-120.5 25.5q-97 0 -215 -28v129q122 35 252 35q278 0 278 -224q0 -34 -8 -84l-29 -157 q-15 -91 -63.5 -146t-143.5 -82q70 -14 110 -61t40 -123q0 -24 -6 -59l-27 -152q-28 -158 -117 -242t-266 -84q-139 0 -270 41z" />
<glyph unicode="4" horiz-adv-x="858" d="M29 356l24 133l555 875h193l-156 -877h137l-18 -131h-141l-62 -356h-151l63 356h-444zM197 487h299l122 699z" />
<glyph unicode="5" horiz-adv-x="804" d="M16 12l27 133q98 -34 231 -34q125 0 182 50t76 165l19 104q8 46 8 70q0 71 -45.5 97t-151.5 26h-225l131 741h549l-22 -135h-396l-82 -469h111q285 0 285 -246q0 -48 -8 -94l-19 -107q-28 -164 -122.5 -251t-287.5 -87q-127 0 -260 37z" />
<glyph unicode="6" horiz-adv-x="894" d="M66 242q0 41 6 71l116 664q38 218 146.5 315t308.5 97q132 0 236 -37l-25 -133q-92 34 -201 34q-141 0 -212 -62t-99 -226l-43 -244q129 63 256 63q114 0 179 -54.5t65 -168.5q0 -37 -8 -84l-29 -162q-30 -167 -128.5 -253.5t-277.5 -86.5q-134 0 -212 72t-78 195z M219 242q0 -70 40 -101.5t122 -31.5q190 0 225 194l31 174q6 38 6 58q0 61 -36 87.5t-115 26.5q-106 0 -216 -55l-51 -291q-6 -37 -6 -61z" />
<glyph unicode="7" horiz-adv-x="780" d="M53 0l633 1227h-496l25 137h651l-22 -123l-635 -1241h-156z" />
<glyph unicode="8" horiz-adv-x="919" d="M59 229q0 28 7 72l14 82q21 120 85.5 190.5t188.5 126.5q-75 59 -108 117.5t-33 128.5q0 30 8 76l10 57q28 157 116 233.5t251 76.5q134 0 211.5 -60.5t77.5 -177.5q0 -33 -6 -70l-15 -82q-18 -103 -79 -175t-175 -132q84 -52 128 -114t44 -150q0 -30 -6 -68l-12 -71 q-53 -314 -393 -314q-151 0 -232.5 66t-81.5 188zM213 246q0 -73 42.5 -106.5t127.5 -33.5q100 0 155.5 40.5t73.5 142.5l15 84q6 30 6 57q0 60 -34 101t-124 98q-73 -38 -108.5 -58.5t-67 -50.5t-45 -62.5t-23.5 -84.5l-12 -70q-6 -35 -6 -57zM367 952q0 -57 29 -94.5 t100 -93.5q109 59 155 105t62 130l16 91q4 24 4 51q0 121 -147 121q-90 0 -137 -41.5t-62 -128.5l-16 -93q-4 -28 -4 -47z" />
<glyph unicode="9" horiz-adv-x="884" d="M61 12l25 131q97 -32 201 -32q141 0 212 62t99 226l43 244q-129 -63 -256 -63q-114 0 -179 55.5t-65 169.5q0 31 9 84l28 160q31 171 122 255.5t278 84.5q141 0 218.5 -72t77.5 -197q0 -38 -6 -73l-114 -652q-38 -219 -148 -319.5t-309 -100.5q-132 0 -236 37zM297 829 q0 -61 36.5 -87.5t115.5 -26.5q105 0 215 55l51 291q6 37 6 63q0 70 -40 100.5t-122 30.5q-100 0 -153 -45t-72 -149l-31 -174q-6 -35 -6 -58z" />
<glyph unicode=":" horiz-adv-x="401" d="M31 0l37 205h155l-37 -205h-155zM145 655l37 205h156l-37 -205h-156z" />
<glyph unicode=";" horiz-adv-x="399" d="M-33 -213l113 213h-51l34 205h156l-35 -205l-155 -248zM143 655l37 205h156l-37 -205h-156z" />
<glyph unicode="&#x3c;" horiz-adv-x="913" d="M94 627v151l678 361l59 -123l-606 -314l606 -313l-59 -123z" />
<glyph unicode="=" horiz-adv-x="915" d="M119 453v129h737v-129h-737zM119 823v129h737v-129h-737z" />
<glyph unicode="&#x3e;" horiz-adv-x="913" d="M131 389l606 313l-606 314l59 123l678 -361v-151l-678 -361z" />
<glyph unicode="?" horiz-adv-x="727" d="M117 0l35 205h155l-35 -205h-155zM195 561l227 193q79 68 111.5 117t48.5 141l12 69q6 35 6 56q0 59 -34.5 85.5t-112.5 26.5q-101 0 -211 -30v137q122 33 250 33q127 0 195.5 -58.5t68.5 -175.5q0 -39 -8 -86l-13 -70q-22 -125 -67.5 -194t-153.5 -158l-238 -194z" />
<glyph unicode="@" horiz-adv-x="1314" d="M106 573q0 177 45.5 325t133 258.5t225 172.5t311.5 62q123 0 218.5 -38.5t154 -105t88 -150.5t29.5 -179q0 -101 -29.5 -192t-84 -160.5t-139 -110.5t-188.5 -41q-98 0 -139 61q-94 -61 -194 -61q-50 0 -74.5 27.5t-24.5 70.5q0 28 11 57l100 275q31 87 76.5 121 t132.5 34q59 0 119 -19.5t102 -49.5l-148 -408q27 -10 54 -10q133 0 220 118t87 281q0 164 -98 265.5t-281 101.5q-145 0 -258.5 -55.5t-183.5 -152.5t-106 -223t-36 -274q0 -219 118 -353t339 -134q123 0 252 29l16 -107q-112 -33 -272 -33q-143 0 -255.5 49t-181 133 t-104 190t-35.5 226zM563 569q-18 -53 45 -53q57 0 117 31l121 330q-41 20 -94 20q-36 0 -57 -13t-33 -46z" />
<glyph unicode="A" horiz-adv-x="888" d="M-61 0l561 1364h188l78 -1364h-152l-14 340h-367l-133 -340h-161zM289 479h305l-23 748z" />
<glyph unicode="B" horiz-adv-x="905" d="M31 0l239 1364h398q107 0 164 -50.5t57 -144.5q0 -35 -6 -65l-33 -184q-15 -86 -52.5 -136.5t-123.5 -76.5q157 -31 157 -187q0 -32 -6 -67l-30 -174q-24 -134 -116 -206.5t-251 -72.5h-397zM213 135h229q91 0 136.5 39.5t58.5 114.5l31 178q6 35 6 51q0 109 -131 109 h-244zM324 762h190q76 0 120 41.5t56 114.5l33 186q4 24 4 43q0 44 -24 63t-78 19h-219z" />
<glyph unicode="C" horiz-adv-x="741" d="M57 248q0 41 11 98l116 666q23 133 67.5 213t128 122t214.5 42q116 0 229 -35l-22 -133q-106 28 -217 28q-114 0 -165 -53t-75 -184l-117 -662q-10 -58 -10 -94q0 -77 42.5 -109t143.5 -32q110 0 218 24l-5 -135q-119 -29 -243 -29q-156 0 -236 69.5t-80 203.5z" />
<glyph unicode="D" horiz-adv-x="929" d="M31 0l239 1364h336q161 0 236.5 -76.5t75.5 -212.5q0 -42 -11 -110l-104 -592q-17 -95 -47 -162t-81 -115.5t-127 -72t-181 -23.5h-336zM213 139h168q128 0 184 54.5t80 189.5l105 594q10 62 10 94q0 82 -43.5 118t-143.5 36h-167z" />
<glyph unicode="E" horiz-adv-x="808" d="M31 0l239 1364h615l-25 -139h-457l-79 -463h417l-24 -139h-418l-86 -484h455l-23 -139h-614z" />
<glyph unicode="F" horiz-adv-x="788" d="M31 0l239 1364h619l-25 -139h-458l-89 -496h422l-24 -139h-422l-103 -590h-159z" />
<glyph unicode="G" horiz-adv-x="894" d="M59 252q0 40 9 96l116 664q36 207 133 292t285 85q146 0 291 -48l-27 -133q-143 41 -266 41q-118 0 -175 -50.5t-81 -188.5l-117 -660q-8 -47 -8 -90q0 -79 43.5 -112t143.5 -33q101 0 174 16l86 487h151l-102 -593q-168 -50 -334 -50q-159 0 -240.5 71.5t-81.5 205.5z " />
<glyph unicode="H" horiz-adv-x="985" d="M31 0l239 1364h160l-104 -594h419l105 594h160l-240 -1364h-160l109 627h-418l-111 -627h-159z" />
<glyph unicode="I" horiz-adv-x="417" d="M37 0l239 1364h160l-239 -1364h-160z" />
<glyph unicode="J" horiz-adv-x="405" d="M-170 -328q109 116 145.5 167t47.5 116l247 1409h160l-248 -1409q-12 -69 -33.5 -115t-73.5 -105.5t-159 -158.5z" />
<glyph unicode="K" horiz-adv-x="849" d="M31 0l239 1364h160l-240 -1364h-159zM342 694l430 670h176l-452 -680l249 -684h-163z" />
<glyph unicode="L" horiz-adv-x="739" d="M31 0l239 1364h160l-217 -1225h416l-23 -139h-575z" />
<glyph unicode="M" horiz-adv-x="1265" d="M31 0l239 1364h195l92 -1239l526 1239h207l-239 -1364h-148l193 1090l-467 -1090h-180l-89 1090l-186 -1090h-143z" />
<glyph unicode="N" horiz-adv-x="993" d="M31 0l239 1364h156l260 -1057l186 1057h146l-240 -1364h-153l-263 1057l-186 -1057h-145z" />
<glyph unicode="O" d="M63 276q0 28 9 84l112 639q33 193 137 291.5t297 98.5q164 0 247 -82t83 -217q0 -41 -8 -91l-113 -641q-32 -177 -138.5 -280t-303.5 -103q-154 0 -238 82.5t-84 218.5zM223 274q0 -85 43.5 -122t134.5 -37q113 0 178 55.5t89 189.5l114 650q9 56 9 80q0 88 -47.5 123.5 t-143.5 35.5q-109 0 -170.5 -57t-85.5 -193l-113 -639q-8 -52 -8 -86z" />
<glyph unicode="P" horiz-adv-x="874" d="M31 0l239 1364h377q131 0 201 -61.5t70 -180.5q0 -36 -9 -88l-28 -162q-28 -159 -117 -238t-270 -79h-205l-99 -555h-159zM313 694h199q97 0 145 45t66 144l29 164q6 41 6 63q0 62 -34.5 88.5t-111.5 26.5h-206z" />
<glyph unicode="Q" d="M63 276q0 28 9 84l112 639q33 193 137 291.5t297 98.5q164 0 247 -82t83 -217q0 -41 -8 -91l-113 -641q-32 -177 -138.5 -280t-303.5 -103q-154 0 -238 82.5t-84 218.5zM184 -256l17 125q257 -18 422 -59l-25 -125q-172 42 -414 59zM223 274q0 -85 43.5 -122t134.5 -37 q113 0 178 55.5t89 189.5l114 650q9 56 9 80q0 88 -47.5 123.5t-143.5 35.5q-109 0 -170.5 -57t-85.5 -193l-113 -639q-8 -52 -8 -86z" />
<glyph unicode="R" horiz-adv-x="954" d="M31 0l239 1364h398q131 0 200.5 -61.5t69.5 -180.5q0 -41 -8 -88l-29 -162q-42 -245 -246 -297l160 -575h-168l-147 559h-211l-99 -559h-159zM313 698h219q98 0 145.5 43t65.5 142l29 164q6 41 6 63q0 62 -34 88.5t-111 26.5h-227z" />
<glyph unicode="S" horiz-adv-x="753" d="M4 20l33 138q117 -43 219 -43q63 0 105 13t68.5 43t41 67.5t25.5 97.5q18 103 18 137q0 58 -32.5 94.5t-121.5 81.5q-116 60 -161 122t-45 151q0 46 14 135q32 181 116 256.5t242 75.5q138 0 258 -43l-26 -134q-129 37 -230 37q-94 0 -138 -45.5t-66 -169.5 q-11 -68 -11 -90q0 -47 29.5 -80.5t112.5 -79.5q122 -67 169.5 -127.5t47.5 -162.5q0 -62 -19 -166q-31 -181 -125 -267t-276 -86q-54 0 -126.5 12.5t-121.5 32.5z" />
<glyph unicode="T" horiz-adv-x="761" d="M154 1225l24 139h701l-25 -139h-270l-215 -1225h-160l215 1225h-270z" />
<glyph unicode="U" horiz-adv-x="968" d="M80 254q0 50 8 94l178 1016h160l-178 -1016q-8 -44 -8 -90q0 -76 39.5 -109.5t130.5 -33.5q115 0 171.5 56t77.5 177l181 1016h159l-180 -1016q-32 -184 -132.5 -278.5t-297.5 -94.5q-152 0 -230.5 72.5t-78.5 206.5z" />
<glyph unicode="V" horiz-adv-x="798" d="M170 1364h156l10 -1180l434 1180h154l-521 -1364h-190z" />
<glyph unicode="W" horiz-adv-x="1335" d="M178 1364h148l-13 -1139l387 1139h199l12 -1139l392 1139h153l-493 -1364h-179l-2 1243l-415 -1243h-174z" />
<glyph unicode="X" horiz-adv-x="845" d="M-61 0l436 702l-176 662h153l127 -508l303 508h168l-418 -676l185 -688h-154l-139 526l-318 -526h-167z" />
<glyph unicode="Y" horiz-adv-x="776" d="M158 1364h161l103 -645l326 645h170l-443 -809l-98 -555h-160l98 557z" />
<glyph unicode="Z" horiz-adv-x="765" d="M0 135l664 1090h-459l24 139h590l8 -135l-663 -1090h481l-22 -139h-615z" />
<glyph unicode="[" horiz-adv-x="552" d="M14 -262l332 1880h338l-20 -131h-183l-284 -1618h180l-21 -131h-342z" />
<glyph unicode="\" horiz-adv-x="761" d="M244 1384h145l146 -1626h-146z" />
<glyph unicode="]" horiz-adv-x="552" d="M-78 -262l21 131h182l285 1618h-181l21 131h342l-332 -1880h-338z" />
<glyph unicode="^" horiz-adv-x="827" d="M137 788l240 576h164l239 -576l-118 -51l-203 512l-203 -512z" />
<glyph unicode="_" horiz-adv-x="598" d="M-147 -291l16 82h602l-16 -82h-602z" />
<glyph unicode="`" horiz-adv-x="724" d="M315 1286l93 109q75 -81 192 -174l-86 -99q-103 72 -199 164z" />
<glyph unicode="a" horiz-adv-x="804" d="M35 172q0 24 6 59l84 467q30 169 110.5 237.5t235.5 68.5t303 -86l-162 -918h-127l4 113q-56 -63 -125.5 -98t-140.5 -35q-92 0 -140 52.5t-48 139.5zM195 219q-3 -16 -3 -30q0 -74 82 -74q103 0 224 127l106 604q-64 22 -141 22q-84 0 -125 -42.5t-59 -137.5z" />
<glyph unicode="b" horiz-adv-x="835" d="M27 45l239 1360l160 25l-90 -515q143 89 268 89q92 0 140.5 -52t48.5 -139q0 -24 -7 -59l-81 -463q-30 -166 -124.5 -238.5t-256.5 -72.5q-127 0 -297 65zM199 137q71 -22 141 -22q101 0 148 46t63 140l80 453q4 24 4 32q0 82 -94 82q-87 0 -228 -80z" />
<glyph unicode="c" horiz-adv-x="606" d="M33 174q0 19 6 55l90 504q49 271 313 271q107 0 197 -33l-29 -127q-74 24 -155 24q-82 0 -120.5 -34t-53.5 -123l-91 -504q-2 -13 -2 -24q0 -68 82 -68q95 0 224 47l10 -127q-140 -55 -256 -55q-103 0 -159 52t-56 142z" />
<glyph unicode="d" horiz-adv-x="845" d="M41 170q0 23 4 51l88 498q28 158 105 221.5t213 63.5q108 0 202 -50l80 451l160 25l-252 -1430h-129l4 96q-151 -116 -285 -116q-93 0 -141.5 53t-48.5 137zM199 197q0 -82 82 -82q102 0 243 106l109 615q-66 32 -166 32q-82 0 -123.5 -37.5t-56.5 -123.5l-84 -474 q-4 -24 -4 -36z" />
<glyph unicode="e" horiz-adv-x="696" d="M33 186q0 31 6 66l80 446q29 164 114 235t220 71q114 0 178.5 -62t64.5 -164q0 -114 -76.5 -192t-252.5 -150l-150 -57l-27 -150q-4 -24 -4 -34q0 -84 97 -84q91 0 266 86l31 -123q-184 -94 -320 -94q-111 0 -169 56.5t-58 149.5zM244 526q53 20 110 43q97 38 145 85 t48 118q0 47 -28.5 76t-80.5 29q-75 0 -110.5 -41.5t-53.5 -137.5z" />
<glyph unicode="f" horiz-adv-x="483" d="M-119 -334q76 87 100.5 135t41.5 144l161 903h-123l23 135h123l39 209q24 129 88 184.5t172 55.5q84 0 162 -33l-27 -125q-62 20 -125 20q-51 0 -78.5 -26.5t-38.5 -85.5l-34 -199h208l-24 -135h-209l-160 -893q-15 -79 -24 -116.5t-30.5 -84.5t-54.5 -85t-91 -93z" />
<glyph unicode="g" horiz-adv-x="827" d="M-4 -360l33 127q132 -56 250 -56q88 0 124 32t50 110l45 249q-145 -90 -267 -90q-92 0 -140 53t-48 140q0 25 6 59l76 434q30 168 117.5 237t255.5 69q156 0 299 -86l-189 -1072q-48 -270 -321 -270q-73 0 -157.5 19.5t-133.5 44.5zM201 229q0 -82 94 -82q84 0 225 84 l109 617q-68 20 -140 20q-102 0 -146 -41.5t-62 -138.5l-76 -426q-4 -20 -4 -33z" />
<glyph unicode="h" horiz-adv-x="837" d="M20 0l248 1405l160 25l-94 -539q165 113 309 113q75 0 111.5 -39.5t36.5 -106.5q0 -17 -7 -57l-141 -801h-156l140 791q6 36 -9 56.5t-51 20.5q-89 0 -256 -102l-135 -766h-156z" />
<glyph unicode="i" horiz-adv-x="380" d="M20 0l170 969l162 24l-176 -993h-156zM221 1137l43 252l162 24l-43 -252z" />
<glyph unicode="j" horiz-adv-x="380" d="M-180 -328q108 115 144.5 166t47.5 117l178 1014l162 24l-184 -1040q-12 -70 -32.5 -114.5t-71.5 -104t-158 -158.5zM221 1137l43 252l162 24l-43 -252z" />
<glyph unicode="k" horiz-adv-x="708" d="M20 0l248 1405l160 25l-252 -1430h-156zM297 504l309 497l148 -40l-303 -459l180 -502h-156z" />
<glyph unicode="l" horiz-adv-x="380" d="M20 0l248 1405l160 25l-252 -1430h-156z" />
<glyph unicode="m" horiz-adv-x="1288" d="M20 0l170 969l134 24l-7 -110q169 121 318 121q67 0 103 -32.5t42 -88.5q166 121 314 121q75 0 111 -39.5t36 -106.5q0 -23 -6 -57l-141 -801h-156l139 791q2 12 2 22q0 55 -61 55q-81 0 -248 -102l-135 -766h-156l139 791q2 12 2 22q0 55 -61 55q-81 0 -248 -102 l-135 -766h-156z" />
<glyph unicode="n" horiz-adv-x="837" d="M20 0l170 969l134 24l-7 -110q73 52 161.5 86.5t164.5 34.5q75 0 111.5 -39.5t36.5 -106.5q0 -17 -7 -57l-141 -801h-156l140 791q6 36 -9 56.5t-51 20.5q-89 0 -256 -102l-135 -766h-156z" />
<glyph unicode="o" horiz-adv-x="815" d="M37 240q0 28 6 63l68 383q29 161 115 239.5t253 78.5q134 0 210.5 -76t76.5 -201q0 -35 -6 -76l-62 -350q-57 -321 -381 -321q-123 0 -201.5 71t-78.5 189zM193 246q0 -135 149 -135q83 0 133.5 47t65.5 133l67 385q4 25 4 53q0 66 -35 104.5t-110 38.5 q-84 0 -133.5 -41.5t-67.5 -144.5l-69 -395q-4 -32 -4 -45z" />
<glyph unicode="p" horiz-adv-x="839" d="M-55 -428l250 1411h127l-5 -96q152 117 285 117q93 0 142 -53.5t49 -137.5q0 -21 -5 -51l-88 -498q-28 -157 -105.5 -220.5t-211.5 -63.5q-109 0 -201 53l-78 -436zM203 150q75 -35 164 -35q82 0 123.5 37.5t56.5 123.5l84 474q4 24 4 36q0 82 -82 82q-36 0 -82 -17 t-77.5 -35t-82.5 -50z" />
<glyph unicode="q" horiz-adv-x="833" d="M37 172q0 24 6 59l82 467q30 168 117.5 237t255.5 69q162 0 305 -86l-236 -1321l-159 -25l86 496q-141 -88 -269 -88q-92 0 -140 52.5t-48 139.5zM195 197q0 -82 94 -82q86 0 227 80l115 651q-64 22 -142 22q-102 0 -146 -41.5t-62 -138.5l-82 -459q-4 -20 -4 -32z" />
<glyph unicode="r" horiz-adv-x="483" d="M20 0l173 969l133 24l-11 -151q80 107 207 159l35 -145q-57 -23 -134 -67t-122 -78l-125 -711h-156z" />
<glyph unicode="s" horiz-adv-x="598" d="M-10 23l30 129q87 -37 191 -37q76 0 111 29t47 98q6 34 6 57q0 45 -23.5 73.5t-87.5 69.5q-96 63 -135 116.5t-39 127.5q0 30 8 80q23 134 93.5 186t207.5 52q104 0 205 -35l-26 -129q-86 28 -177 28q-76 0 -106.5 -23t-42.5 -91q-6 -30 -6 -52q0 -36 21 -60.5t85 -70.5 q102 -75 141 -124.5t39 -127.5q0 -29 -8 -75q-22 -121 -98 -192.5t-209 -71.5q-129 0 -227 43z" />
<glyph unicode="t" horiz-adv-x="550" d="M72 846l24 137h131l45 256l158 18l-47 -274h219l-22 -137h-222l-122 -692q-7 -39 36 -39q60 0 172 45l23 -121q-145 -59 -236 -59q-70 0 -111.5 38t-41.5 103q0 17 4 41l121 684h-131z" />
<glyph unicode="u" horiz-adv-x="833" d="M37 125q0 23 6 57l139 795l158 10l-139 -794q-2 -12 -2 -22q0 -56 61 -56q90 0 252 102l133 760l158 10l-172 -987h-125v100q-163 -120 -322 -120q-75 0 -111 39t-36 106z" />
<glyph unicode="v" horiz-adv-x="677" d="M82 965l151 26l74 -852q128 367 189 537q34 90 34 174q0 39 -10 117l150 28q14 -74 14 -129q0 -106 -37 -202l-266 -664h-188z" />
<glyph unicode="w" horiz-adv-x="1024" d="M57 965l138 26q74 -404 86 -833l208 571l-49 232l133 28l164 -833q78 368 113 522q18 78 18 145q0 73 -14 144l141 28q15 -74 15 -143q0 -82 -31 -209l-158 -643h-168l-118 520l-197 -520h-172q-18 298 -41 494t-68 471z" />
<glyph unicode="x" horiz-adv-x="681" d="M-61 0l327 512l-147 449l145 34l105 -360l202 348h170l-319 -489l172 -494h-156l-112 358l-222 -358h-165z" />
<glyph unicode="y" horiz-adv-x="677" d="M-37 -334q119 84 172 147.5t101 186.5h-48l-102 965l152 26l73 -852q128 367 189 537q35 92 35 174q0 31 -11 117l150 28q14 -74 14 -129q0 -106 -37 -202q-194 -493 -284 -707q-69 -158 -130.5 -230.5t-213.5 -168.5z" />
<glyph unicode="z" horiz-adv-x="647" d="M-4 123l493 729h-362l27 131h497l8 -123l-491 -729h375l-23 -131h-516z" />
<glyph unicode="{" horiz-adv-x="575" d="M96 614l23 129h39q49 0 69.5 18.5t28.5 63.5l104 594q21 118 72 158.5t162 40.5h123l-21 -131h-92q-43 0 -62.5 -18t-27.5 -62l-100 -569q-11 -66 -44 -106.5t-118 -51.5q110 -18 110 -111q0 -19 -4 -47l-100 -567q-4 -20 -4 -33q0 -29 14.5 -40t50.5 -11h93l-21 -133 h-117q-89 0 -132.5 37.5t-43.5 118.5q0 30 6 71l101 570q2 12 2 24q0 28 -16.5 41.5t-55.5 13.5h-39z" />
<glyph unicode="|" horiz-adv-x="528" d="M55 -262l332 1880h139l-331 -1880h-140z" />
<glyph unicode="}" horiz-adv-x="575" d="M-88 -262l20 131h93q43 0 62.5 18t27.5 62l100 569q12 71 46 109.5t116 48.5q-64 10 -87.5 38t-23.5 72q0 20 4 48l101 567q4 20 4 33q0 29 -15 40t-51 11h-92l21 133h116q89 0 132.5 -37.5t43.5 -118.5q0 -30 -6 -71l-100 -570q-2 -12 -2 -24q0 -29 16.5 -42.5 t55.5 -13.5h38l-22 -129h-39q-49 0 -69.5 -18.5t-28.5 -63.5l-105 -593q-21 -118 -71.5 -158.5t-161.5 -40.5h-123z" />
<glyph unicode="~" horiz-adv-x="862" d="M127 614q15 271 192 271q47 0 82.5 -16t92.5 -58q13 -9 33 -24t27 -20t19.5 -13t19 -10.5t15 -4.5t17.5 -2q31 0 44.5 31t28.5 117l119 -35q-18 -133 -60.5 -198.5t-125.5 -65.5q-45 0 -76.5 15t-89.5 56q-12 9 -33 24t-30.5 22t-24 15.5t-25.5 11.5t-22 3 q-18 0 -31.5 -7.5t-21.5 -18t-14.5 -33t-9.5 -40.5t-7 -52z" />
<glyph unicode="&#xa1;" horiz-adv-x="419" d="M-31 -403l115 655l96 342h86l-26 -342l-115 -655h-156zM176 778l35 205h156l-35 -205h-156z" />
<glyph unicode="&#xa2;" horiz-adv-x="737" d="M98 375q0 19 6 55l86 488q22 128 91 190.5t180 73.5l33 182h153l-35 -184q69 -6 136 -27l-25 -127q-98 25 -207 25q-82 0 -120.5 -34.5t-53.5 -123.5l-86 -487q-8 -45 10 -68t70 -23q99 0 270 47l10 -131q-95 -30 -176 -41l-32 -190h-154l31 180q-92 7 -139.5 58.5 t-47.5 136.5z" />
<glyph unicode="&#xa3;" horiz-adv-x="847" d="M-12 0l20 127q117 137 172 233t84 234h-158l23 137h162l55 316q33 186 117.5 264t241.5 78q113 0 190 -27l-25 -129q-70 20 -149 20q-104 0 -150 -42t-69 -167l-56 -313h297l-22 -137h-303q-34 -142 -90.5 -246t-159.5 -211h502l-23 -137h-659z" />
<glyph unicode="&#xa4;" horiz-adv-x="972" d="M49 231l137 123q-24 47 -24 101q0 41 12 102l45 254q13 73 29 114t59 97l-104 133l104 82l111 -133q73 37 178 37q103 0 160 -35l145 121l78 -99l-137 -112q23 -55 23.5 -99.5t-13.5 -105.5l-45 -254q-11 -70 -27.5 -112t-60.5 -99l102 -129l-102 -84l-111 131 q-71 -39 -174 -39q-106 0 -162 37l-143 -123zM315 473q0 -59 33.5 -87t108.5 -28q92 0 137.5 42t60.5 135l52 299q6 34 6 61q0 59 -34 87t-108 28q-93 0 -138 -41.5t-60 -134.5l-51 -299q-7 -40 -7 -62z" />
<glyph unicode="&#xa5;" horiz-adv-x="819" d="M70 375l18 121h236l10 61l-19 127h-194l24 129h152l-80 551h162l65 -645l281 645h170l-274 -551h153l-24 -129h-193l-63 -129l-11 -59h234l-19 -121h-237l-66 -375h-159l65 375h-231z" />
<glyph unicode="&#xa6;" horiz-adv-x="430" d="M152 -258v766h143v-766h-143zM152 852v766h143v-766h-143z" />
<glyph unicode="&#xa7;" horiz-adv-x="987" d="M195 733q0 202 32 389q26 145 94.5 206t206.5 61q110 0 222 -41l-31 -121q-100 35 -191 35q-72 0 -104.5 -30.5t-44.5 -105.5q-39 -211 -39 -407q0 -148 16.5 -300t63.5 -384l-131 -35q-94 396 -94 733zM260 -342l31 121q100 -35 190 -35q72 0 105 30t45 105 q39 211 39 408q0 148 -16.5 300t-63.5 384l131 35q94 -396 94 -734q0 -196 -33 -389q-26 -145 -94.5 -205.5t-206.5 -60.5q-109 0 -221 41z" />
<glyph unicode="&#xa8;" horiz-adv-x="831" d="M328 1167l30 185h140l-31 -185h-139zM590 1167l31 185h139l-31 -185h-139z" />
<glyph unicode="&#xa9;" horiz-adv-x="1581" d="M115 682q0 202 82 360t243 250t377 92q163 0 296 -53t222 -147t137 -222.5t48 -279.5t-48 -279.5t-137 -222.5t-222 -147t-296 -53q-216 0 -377 92t-243 250t-82 360zM207 682q0 -179 70 -317.5t209.5 -220t330.5 -81.5t330.5 81.5t209.5 220t70 317.5t-70 317.5 t-209.5 219.5t-330.5 81t-330.5 -81t-209.5 -219.5t-70 -317.5zM580 567v238q0 237 245 237q94 0 189 -26l-19 -115q-79 21 -149 21q-72 0 -100.5 -27.5t-28.5 -93.5v-228q0 -65 27.5 -92.5t97.5 -27.5q75 0 153 20l19 -117q-91 -26 -189 -26q-245 0 -245 237z" />
<glyph unicode="&#xaa;" horiz-adv-x="688" d="M197 858q0 13 4 37l55 313q17 95 70.5 138t152.5 43q107 0 199 -52l-103 -585h-92l2 73q-71 -86 -159 -86q-62 0 -95.5 32t-33.5 87zM315 895q-10 -55 43 -55q52 0 129 65l66 371q-37 12 -80 12q-49 0 -72 -19t-32 -71z" />
<glyph unicode="&#xab;" horiz-adv-x="978" d="M125 541l301 417l115 -84l-260 -342l129 -354l-131 -55zM483 541l301 417l115 -84l-260 -342l129 -354l-131 -55z" />
<glyph unicode="&#xac;" horiz-adv-x="960" d="M143 817v131h738v-491h-148v360h-590z" />
<glyph unicode="&#xad;" horiz-adv-x="624" d="M125 596l22 135h402l-23 -135h-401z" />
<glyph unicode="&#xae;" horiz-adv-x="929" d="M186 1055q0 161 98.5 265.5t272.5 104.5t272.5 -104.5t98.5 -265.5t-98.5 -266t-272.5 -105t-272.5 105t-98.5 266zM248 1055q0 -63 18 -118t54.5 -100t97.5 -71.5t139 -26.5t139 26.5t97.5 71.5t54.5 100t18 118t-18 118t-54.5 100t-97 71t-139.5 26t-139.5 -26t-97 -71 t-54.5 -100t-18 -118zM438 893v340h160q47 0 68.5 -21.5t21.5 -68.5v-45q0 -61 -49 -82l88 -123h-82l-76 113h-63v-113h-68zM506 1061h78q21 0 29 8.5t8 28.5v41q0 21 -8.5 29t-30.5 8h-76v-115z" />
<glyph unicode="&#xaf;" horiz-adv-x="835" d="M299 1200l23 125h405l-22 -125h-406z" />
<glyph unicode="&#xb0;" horiz-adv-x="675" d="M184 1118q0 124 69.5 197.5t197.5 73.5q92 0 144 -52t52 -133q0 -120 -73 -196t-195 -76q-90 0 -142.5 53t-52.5 133zM289 1124q0 -104 102 -104q74 0 114 50t40 128q0 46 -28 74t-79 28q-70 0 -109.5 -46.5t-39.5 -129.5z" />
<glyph unicode="&#xb1;" horiz-adv-x="970" d="M115 0v127h737v-127h-737zM115 643v131h295v354h147v-354h295v-131h-295v-360h-147v360h-295z" />
<glyph unicode="&#xb2;" horiz-adv-x="753" d="M156 543l18 104l258 238q78 70 105.5 110.5t40.5 108.5l10 57q4 28 4 39q0 38 -22.5 52t-75.5 14q-69 0 -175 -29l5 119q85 28 198 28q199 0 199 -161q0 -30 -6 -60l-10 -59q-15 -88 -49 -142.5t-113 -123.5l-209 -181h289l-21 -114h-446z" />
<glyph unicode="&#xb3;" horiz-adv-x="722" d="M158 557l24 109q91 -31 160 -31q70 0 99 20.5t38 75.5l13 70q4 20 4 35q0 34 -20.5 47.5t-69.5 13.5h-132l21 115h127q50 0 77 21.5t36 70.5l12 70q4 20 4 36q0 37 -22 49.5t-76 12.5q-60 0 -154 -23l10 111q94 24 174 24q197 0 197 -147q0 -31 -4 -51l-14 -82 q-10 -57 -38.5 -93t-91.5 -53q93 -21 93 -114q0 -18 -7 -53l-12 -70q-18 -100 -78.5 -149.5t-173.5 -49.5q-100 0 -196 35z" />
<glyph unicode="&#xb4;" horiz-adv-x="739" d="M338 1225q134 87 250 170l69 -125q-151 -90 -258 -148z" />
<glyph unicode="&#xb5;" horiz-adv-x="833" d="M-66 -428l248 1405l158 10l-139 -794q-13 -78 59 -78q90 0 252 102l133 760l158 10l-172 -987h-125v100q-163 -120 -322 -120q-14 0 -22 2l-68 -385z" />
<glyph unicode="&#xb6;" horiz-adv-x="919" d="M174 846q0 234 131 376t357 142l-152 -862q-145 0 -240.5 93t-95.5 251zM309 -336q20 21 50.5 54t43.5 47t34.5 37.5t30 34t22.5 28.5t19 28.5t12.5 26t11 29.5t6.5 31l243 1384h152l-244 -1387q-13 -74 -36.5 -119t-72.5 -99t-184 -183z" />
<glyph unicode="&#xb7;" horiz-adv-x="378" d="M117 557l35 205h155l-35 -205h-155z" />
<glyph unicode="&#xb8;" horiz-adv-x="706" d="M55 -383l21 84q50 -16 86 -16q86 0 86 63q0 49 -47 49q-32 0 -51 -8l-46 25l56 204h98l-35 -139q135 -3 135 -123q0 -70 -48 -114.5t-130 -44.5q-67 0 -125 20z" />
<glyph unicode="&#xb9;" horiz-adv-x="604" d="M209 1204l246 160h100l-145 -821h-127l116 657l-141 -86z" />
<glyph unicode="&#xba;" horiz-adv-x="667" d="M195 942l43 244q19 105 74.5 154t160.5 49q99 0 151.5 -53t34.5 -152l-43 -242q-38 -203 -243 -203q-92 0 -143.5 55.5t-34.5 147.5zM309 942q-9 -55 10.5 -78.5t71.5 -23.5q53 0 77.5 26t35.5 86l41 234q19 102 -80 102q-53 0 -78 -22.5t-35 -81.5z" />
<glyph unicode="&#xbb;" horiz-adv-x="974" d="M84 203l256 346l-129 354l131 55l154 -417l-301 -418zM442 205l256 344l-129 354l131 55l154 -417l-301 -418z" />
<glyph unicode="&#xbc;" horiz-adv-x="1511" d="M252 1204l246 160h100l-145 -821h-127l116 657l-141 -86zM315 -39l736 1452l100 -47l-737 -1456zM774 188l19 103l364 530h158l-92 -526h94l-19 -107h-94l-33 -188h-116l32 188h-313zM918 295h188l68 381z" />
<glyph unicode="&#xbd;" horiz-adv-x="1533" d="M252 1204l246 160h100l-145 -821h-127l116 657l-141 -86zM315 -39l736 1452l100 -47l-737 -1456zM829 0l19 104l258 238q77 69 104.5 109.5t40.5 109.5l11 57q4 28 4 39q0 38 -23 52t-76 14q-68 0 -174 -29l4 119q88 29 199 29q199 0 199 -162q0 -29 -6 -59l-11 -60 q-15 -88 -48.5 -143t-112.5 -123l-209 -180h288l-20 -115h-447z" />
<glyph unicode="&#xbe;" horiz-adv-x="1562" d="M158 557l24 109q91 -31 160 -31q70 0 99 20.5t38 75.5l13 70q4 20 4 35q0 34 -20.5 47.5t-69.5 13.5h-132l21 115h127q50 0 77 21.5t36 70.5l12 70q4 20 4 36q0 37 -22 49.5t-76 12.5q-60 0 -154 -23l10 111q94 24 174 24q197 0 197 -147q0 -31 -4 -51l-14 -82 q-10 -57 -38.5 -93t-91.5 -53q93 -21 93 -114q0 -18 -7 -53l-12 -70q-18 -100 -78.5 -149.5t-173.5 -49.5q-100 0 -196 35zM367 -39l735 1452l100 -47l-737 -1456zM825 188l19 103l364 530h158l-92 -526h94l-18 -107h-95l-32 -188h-117l33 188h-314zM969 295h188l68 381z " />
<glyph unicode="&#xbf;" horiz-adv-x="772" d="M-14 -190q0 39 8 86l12 69q22 125 67.5 194t153.5 158l238 195l82 -109l-228 -192q-78 -67 -110.5 -116.5t-48.5 -141.5l-13 -70q-6 -35 -6 -55q0 -59 35 -86t113 -27q97 0 211 31v-137q-122 -33 -250 -33q-127 0 -195.5 58.5t-68.5 175.5zM442 778l35 205h156l-35 -205 h-156z" />
<glyph unicode="&#xc0;" horiz-adv-x="888" d="M-61 0l561 1364h188l78 -1364h-152l-14 340h-367l-133 -340h-161zM289 479h305l-23 748zM430 1624l92 109q59 -64 180 -160l-81 -103q-112 78 -191 154z" />
<glyph unicode="&#xc1;" horiz-adv-x="888" d="M-61 0l561 1364h188l78 -1364h-152l-14 340h-367l-133 -340h-161zM289 479h305l-23 748zM502 1573q138 80 241 160l62 -121q-144 -94 -244 -142z" />
<glyph unicode="&#xc2;" horiz-adv-x="888" d="M-61 0l561 1364h188l78 -1364h-152l-14 340h-367l-133 -340h-161zM289 479h305l-23 748zM401 1559q36 26 111.5 80t128.5 94q91 -101 182 -185l-78 -78q-58 47 -124 109q-126 -86 -162 -109z" />
<glyph unicode="&#xc3;" horiz-adv-x="888" d="M-61 0l561 1364h188l78 -1364h-152l-14 340h-367l-133 -340h-161zM289 479h305l-23 748zM383 1581q52 74 85.5 98.5t84.5 24.5q46 0 98 -37q5 -4 14 -10.5t12.5 -9t10 -7t10 -6t9 -3.5t10 -2.5t10.5 -0.5q18 0 30.5 9.5t39.5 45.5l77 -61q-45 -66 -80 -91.5t-79 -25.5 q-48 0 -99 35q-4 3 -11 8t-10 7l-9 6t-8.5 5.5t-7 4t-7 4t-6.5 3t-6.5 2t-5.5 1t-6 0.5q-22 0 -35.5 -12t-44.5 -53z" />
<glyph unicode="&#xc4;" horiz-adv-x="888" d="M-61 0l561 1364h188l78 -1364h-152l-14 340h-367l-133 -340h-161zM289 479h305l-23 748zM406 1511l30 185h142l-31 -185h-141zM684 1511l31 185h141l-31 -185h-141z" />
<glyph unicode="&#xc5;" horiz-adv-x="888" d="M-61 0l548 1333q-24 27 -24 74q0 71 44.5 115.5t119.5 44.5q59 0 90 -30.5t31 -80.5q0 -82 -58 -127l76 -1329h-152l-14 340h-367l-133 -340h-161zM289 479h305l-23 748zM545 1411q0 -47 47 -47q33 0 52.5 25t19.5 61q0 47 -48 47q-33 0 -52 -24t-19 -62z" />
<glyph unicode="&#xc6;" horiz-adv-x="1222" d="M-61 0l561 1364h798l-24 -139h-578l27 -463h432l-25 -139h-399l27 -484h323l-22 -139h-445l-14 340h-367l-133 -340h-161zM289 479h305l-23 748z" />
<glyph unicode="&#xc7;" horiz-adv-x="741" d="M57 248q0 41 11 98l116 666q23 133 67.5 213t128 122t214.5 42q116 0 229 -35l-22 -133q-106 28 -217 28q-114 0 -165 -53t-75 -184l-117 -662q-10 -58 -10 -94q0 -77 42.5 -109t143.5 -32q110 0 218 24l-5 -135q-114 -26 -227 -29l-22 -96q135 -3 135 -123 q0 -70 -48 -114.5t-130 -44.5q-67 0 -125 20l20 84q50 -16 86 -16q86 0 86 63q0 49 -47 49q-32 0 -51 -8l-45 25l45 168q-117 15 -176.5 82.5t-59.5 183.5z" />
<glyph unicode="&#xc8;" horiz-adv-x="808" d="M31 0l239 1364h615l-25 -139h-457l-79 -463h417l-24 -139h-418l-86 -484h455l-23 -139h-614zM430 1624l92 109q59 -64 180 -160l-81 -103q-112 78 -191 154z" />
<glyph unicode="&#xc9;" horiz-adv-x="808" d="M31 0l239 1364h615l-25 -139h-457l-79 -463h417l-24 -139h-418l-86 -484h455l-23 -139h-614zM459 1573q138 80 241 160l62 -121q-144 -94 -244 -142z" />
<glyph unicode="&#xca;" horiz-adv-x="808" d="M31 0l239 1364h615l-25 -139h-457l-79 -463h417l-24 -139h-418l-86 -484h455l-23 -139h-614zM397 1559q36 26 111.5 80t128.5 94q91 -101 182 -185l-78 -78q-65 52 -125 109q-140 -96 -161 -109z" />
<glyph unicode="&#xcb;" horiz-adv-x="808" d="M31 0l239 1364h615l-25 -139h-457l-79 -463h417l-24 -139h-418l-86 -484h455l-23 -139h-614zM389 1511l31 185h141l-31 -185h-141zM668 1511l30 185h142l-31 -185h-141z" />
<glyph unicode="&#xcc;" horiz-adv-x="417" d="M37 0l239 1364h160l-239 -1364h-160zM215 1624l92 109q59 -64 180 -160l-81 -103q-112 78 -191 154z" />
<glyph unicode="&#xcd;" horiz-adv-x="417" d="M37 0l239 1364h160l-239 -1364h-160zM266 1573q142 82 242 160l61 -121q-146 -96 -243 -142z" />
<glyph unicode="&#xce;" horiz-adv-x="417" d="M37 0l239 1364h160l-239 -1364h-160zM180 1559q36 26 111.5 80t128.5 94q91 -101 182 -185l-78 -78q-65 52 -125 109q-140 -96 -161 -109z" />
<glyph unicode="&#xcf;" horiz-adv-x="417" d="M37 0l239 1364h160l-239 -1364h-160zM174 1511l31 185h141l-31 -185h-141zM453 1511l30 185h142l-31 -185h-141z" />
<glyph unicode="&#xd0;" horiz-adv-x="962" d="M63 0l109 616h-84l23 134h84l108 614h336q161 0 236 -76.5t75 -212.5q0 -48 -10 -110l-104 -592q-22 -127 -69.5 -206.5t-138 -123t-229.5 -43.5h-336zM246 139h168q128 0 184 54.5t80 189.5l104 594q11 68 11 94q0 82 -43.5 118t-143.5 36h-168l-84 -475h185l-23 -134 h-186z" />
<glyph unicode="&#xd1;" horiz-adv-x="993" d="M31 0l239 1364h156l260 -1057l186 1057h146l-240 -1364h-153l-263 1057l-186 -1057h-145zM422 1581q52 74 85.5 98.5t84.5 24.5q46 0 98 -37q5 -4 14 -10.5t12.5 -9t10 -7t10 -6t9 -3.5t10 -2.5t10.5 -0.5q18 0 30.5 9.5t39.5 45.5l77 -61q-45 -66 -80 -91.5t-79 -25.5 q-48 0 -99 35q-4 3 -11 8t-10 7l-9 6t-8.5 5.5t-7 4t-7 4t-6.5 3t-6.5 2t-5.5 1t-6 0.5q-22 0 -35.5 -12t-44.5 -53z" />
<glyph unicode="&#xd2;" d="M63 276q0 28 9 84l112 639q33 193 137 291.5t297 98.5q164 0 247 -82t83 -217q0 -41 -8 -91l-113 -641q-32 -177 -138.5 -280t-303.5 -103q-154 0 -238 82.5t-84 218.5zM223 274q0 -85 43.5 -122t134.5 -37q113 0 178 55.5t89 189.5l114 650q9 56 9 80q0 88 -47.5 123.5 t-143.5 35.5q-109 0 -170.5 -57t-85.5 -193l-113 -639q-8 -52 -8 -86zM467 1624l92 109q59 -64 180 -160l-82 -103q-108 75 -190 154z" />
<glyph unicode="&#xd3;" d="M63 276q0 28 9 84l112 639q33 193 137 291.5t297 98.5q164 0 247 -82t83 -217q0 -41 -8 -91l-113 -641q-32 -177 -138.5 -280t-303.5 -103q-154 0 -238 82.5t-84 218.5zM223 274q0 -85 43.5 -122t134.5 -37q113 0 178 55.5t89 189.5l114 650q9 56 9 80q0 88 -47.5 123.5 t-143.5 35.5q-109 0 -170.5 -57t-85.5 -193l-113 -639q-8 -52 -8 -86zM473 1573q142 82 242 160l61 -121q-144 -94 -244 -142z" />
<glyph unicode="&#xd4;" d="M63 276q0 28 9 84l112 639q33 193 137 291.5t297 98.5q164 0 247 -82t83 -217q0 -41 -8 -91l-113 -641q-32 -177 -138.5 -280t-303.5 -103q-154 0 -238 82.5t-84 218.5zM223 274q0 -85 43.5 -122t134.5 -37q113 0 178 55.5t89 189.5l114 650q9 56 9 80q0 88 -47.5 123.5 t-143.5 35.5q-109 0 -170.5 -57t-85.5 -193l-113 -639q-8 -52 -8 -86zM436 1559q36 26 111.5 80t128.5 94q91 -101 182 -185l-78 -78q-65 52 -125 109q-140 -96 -161 -109z" />
<glyph unicode="&#xd5;" d="M63 276q0 28 9 84l112 639q33 193 137 291.5t297 98.5q164 0 247 -82t83 -217q0 -41 -8 -91l-113 -641q-32 -177 -138.5 -280t-303.5 -103q-154 0 -238 82.5t-84 218.5zM223 274q0 -85 43.5 -122t134.5 -37q113 0 178 55.5t89 189.5l114 650q9 56 9 80q0 88 -47.5 123.5 t-143.5 35.5q-109 0 -170.5 -57t-85.5 -193l-113 -639q-8 -52 -8 -86zM412 1581q52 74 85.5 98.5t84.5 24.5q46 0 98 -37q5 -4 14 -10.5t12.5 -9t10 -7t10 -6t9 -3.5t10 -2.5t10.5 -0.5q18 0 30 9.5t39 45.5l78 -61q-45 -66 -80.5 -91.5t-79.5 -25.5q-47 0 -98 35 q-59 41 -78 41q-22 0 -35.5 -12t-44.5 -53z" />
<glyph unicode="&#xd6;" d="M63 276q0 28 9 84l112 639q33 193 137 291.5t297 98.5q164 0 247 -82t83 -217q0 -41 -8 -91l-113 -641q-32 -177 -138.5 -280t-303.5 -103q-154 0 -238 82.5t-84 218.5zM223 274q0 -85 43.5 -122t134.5 -37q113 0 178 55.5t89 189.5l114 650q9 56 9 80q0 88 -47.5 123.5 t-143.5 35.5q-109 0 -170.5 -57t-85.5 -193l-113 -639q-8 -52 -8 -86zM438 1511l31 185h141l-30 -185h-142zM717 1511l31 185h141l-31 -185h-141z" />
<glyph unicode="&#xd7;" horiz-adv-x="886" d="M117 436l264 266l-264 265l92 92l264 -264l264 264l94 -92l-264 -265l264 -266l-94 -92l-264 264l-264 -264z" />
<glyph unicode="&#xd8;" d="M-4 -76l110 182q-43 70 -43 170q0 28 9 84l112 639q33 193 137 291.5t297 98.5q143 0 228 -66l98 164l72 -45l-111 -185q43 -70 43 -167q0 -41 -8 -91l-113 -641q-32 -177 -138.5 -280t-303.5 -103q-134 0 -219 66l-100 -164zM223 299l541 891q-43 59 -164 59 q-109 0 -170.5 -57t-85.5 -193l-113 -639q-8 -54 -8 -61zM246 174q40 -59 155 -59q113 0 178 55.5t89 189.5l114 650q5 24 9 59z" />
<glyph unicode="&#xd9;" horiz-adv-x="968" d="M80 254q0 50 8 94l178 1016h160l-178 -1016q-8 -44 -8 -90q0 -76 39.5 -109.5t130.5 -33.5q115 0 171.5 56t77.5 177l181 1016h159l-180 -1016q-32 -184 -132.5 -278.5t-297.5 -94.5q-152 0 -230.5 72.5t-78.5 206.5zM477 1624l92 109q57 -61 181 -160l-82 -103 q-112 78 -191 154z" />
<glyph unicode="&#xda;" horiz-adv-x="968" d="M80 254q0 50 8 94l178 1016h160l-178 -1016q-8 -44 -8 -90q0 -76 39.5 -109.5t130.5 -33.5q115 0 171.5 56t77.5 177l181 1016h159l-180 -1016q-32 -184 -132.5 -278.5t-297.5 -94.5q-152 0 -230.5 72.5t-78.5 206.5zM508 1573q142 82 242 160l61 -121 q-144 -94 -244 -142z" />
<glyph unicode="&#xdb;" horiz-adv-x="968" d="M80 254q0 50 8 94l178 1016h160l-178 -1016q-8 -44 -8 -90q0 -76 39.5 -109.5t130.5 -33.5q115 0 171.5 56t77.5 177l181 1016h159l-180 -1016q-32 -184 -132.5 -278.5t-297.5 -94.5q-152 0 -230.5 72.5t-78.5 206.5zM449 1559q34 25 110 79t129 95q91 -101 182 -185 l-77 -78q-65 52 -125 109q-126 -86 -162 -109z" />
<glyph unicode="&#xdc;" horiz-adv-x="968" d="M80 254q0 50 8 94l178 1016h160l-178 -1016q-8 -44 -8 -90q0 -76 39.5 -109.5t130.5 -33.5q115 0 171.5 56t77.5 177l181 1016h159l-180 -1016q-32 -184 -132.5 -278.5t-297.5 -94.5q-152 0 -230.5 72.5t-78.5 206.5zM444 1511l31 185h141l-30 -185h-142zM723 1511 l31 185h141l-31 -185h-141z" />
<glyph unicode="&#xdd;" horiz-adv-x="776" d="M158 1364h161l103 -645l326 645h170l-443 -809l-98 -555h-160l98 557zM412 1573q138 80 241 160l62 -121q-144 -94 -244 -142z" />
<glyph unicode="&#xde;" horiz-adv-x="874" d="M31 0l239 1364h160l-47 -268h217q131 0 200.5 -61.5t69.5 -180.5q0 -41 -8 -88l-28 -162q-28 -159 -117.5 -238t-270.5 -79h-204l-52 -287h-159zM266 426h199q98 0 145.5 44.5t65.5 143.5l29 164q6 40 6 64q0 62 -34 88t-112 26h-207z" />
<glyph unicode="&#xdf;" horiz-adv-x="872" d="M-141 -334q76 87 100 134t41 143l201 1134q32 181 114 256.5t246 75.5q125 0 199 -64t74 -165q0 -43 -8 -82.5t-25 -77.5t-28.5 -60t-35.5 -59.5t-28 -44.5q-11 -18 -35.5 -56t-36.5 -57t-22.5 -45.5t-10.5 -46.5q0 -25 14.5 -46t63.5 -73q66 -71 95.5 -122t29.5 -117 q0 -27 -6 -62q-43 -241 -287 -241q-98 0 -180 28l26 129q80 -26 150 -26q65 0 96 24t43 86q4 28 4 39q0 36 -20 65.5t-80 92.5q-60 61 -84.5 106t-24.5 95q0 27 6 53.5t22 58t25.5 49.5t35 57.5t32.5 51.5q8 12 30.5 46t32 51t23.5 46.5t19.5 58t5.5 60.5q0 115 -131 115 q-84 0 -127 -45t-62 -150l-198 -1128q-26 -144 -58.5 -209t-142.5 -168z" />
<glyph unicode="&#xe0;" horiz-adv-x="804" d="M35 172q0 24 6 59l84 467q30 169 110.5 237.5t235.5 68.5t303 -86l-162 -918h-127l4 113q-56 -63 -125.5 -98t-140.5 -35q-92 0 -140 52.5t-48 139.5zM195 219q-18 -104 79 -104q103 0 224 127l106 604q-64 22 -141 22q-84 0 -125 -42.5t-59 -137.5zM356 1286l93 109 q75 -81 192 -174l-86 -99q-103 72 -199 164z" />
<glyph unicode="&#xe1;" horiz-adv-x="804" d="M35 172q0 24 6 59l84 467q30 169 110.5 237.5t235.5 68.5t303 -86l-162 -918h-127l4 113q-56 -63 -125.5 -98t-140.5 -35q-92 0 -140 52.5t-48 139.5zM195 219q-18 -104 79 -104q103 0 224 127l106 604q-64 22 -141 22q-84 0 -125 -42.5t-59 -137.5zM354 1225 q134 87 250 170l70 -125q-151 -90 -258 -148z" />
<glyph unicode="&#xe2;" horiz-adv-x="804" d="M35 172q0 24 6 59l84 467q30 169 110.5 237.5t235.5 68.5t303 -86l-162 -918h-127l4 113q-56 -63 -125.5 -98t-140.5 -35q-92 0 -140 52.5t-48 139.5zM195 219q-18 -104 79 -104q103 0 224 127l106 604q-64 22 -141 22q-84 0 -125 -42.5t-59 -137.5zM303 1208 q29 23 106 83t130 104q32 -37 91.5 -101t88.5 -96l-82 -76q-55 48 -119 117q-56 -50 -151 -117z" />
<glyph unicode="&#xe3;" horiz-adv-x="804" d="M35 172q0 24 6 59l84 467q30 169 110.5 237.5t235.5 68.5t303 -86l-162 -918h-127l4 113q-56 -63 -125.5 -98t-140.5 -35q-92 0 -140 52.5t-48 139.5zM195 219q-18 -104 79 -104q103 0 224 127l106 604q-64 22 -141 22q-84 0 -125 -42.5t-59 -137.5zM289 1237 q52 74 85.5 98.5t84.5 24.5q46 0 98 -37q5 -4 14 -10.5t12.5 -9t10 -7t10 -6t9 -3.5t10 -2.5t10.5 -0.5q18 0 30 9.5t39 45.5l78 -61q-45 -66 -80 -91.5t-79 -25.5q-48 0 -99 35q-59 41 -78 41q-15 0 -27.5 -8t-20 -17.5t-31.5 -40.5z" />
<glyph unicode="&#xe4;" horiz-adv-x="804" d="M35 172q0 24 6 59l84 467q30 169 110.5 237.5t235.5 68.5t303 -86l-162 -918h-127l4 113q-56 -63 -125.5 -98t-140.5 -35q-92 0 -140 52.5t-48 139.5zM195 219q-18 -104 79 -104q103 0 224 127l106 604q-64 22 -141 22q-84 0 -125 -42.5t-59 -137.5zM326 1167l30 185h140 l-31 -185h-139zM588 1167l30 185h140l-31 -185h-139z" />
<glyph unicode="&#xe5;" horiz-adv-x="804" d="M35 172q0 24 6 59l84 467q30 169 110.5 237.5t235.5 68.5t303 -86l-162 -918h-127l4 113q-56 -63 -125.5 -98t-140.5 -35q-92 0 -140 52.5t-48 139.5zM195 219q-18 -104 79 -104q103 0 224 127l106 604q-64 22 -141 22q-84 0 -125 -42.5t-59 -137.5zM399 1249 q0 71 44.5 115.5t119.5 44.5q59 0 90 -30.5t31 -80.5q0 -70 -45.5 -115.5t-120.5 -45.5q-56 0 -87.5 30.5t-31.5 81.5zM481 1253q0 -47 47 -47q33 0 52.5 25t19.5 61q0 47 -47 47q-33 0 -52.5 -24t-19.5 -62z" />
<glyph unicode="&#xe6;" horiz-adv-x="1155" d="M18 197q0 27 7 71q26 145 95 207t202 62h200l31 172q6 37 6 57q0 55 -30.5 78.5t-98.5 23.5q-110 0 -242 -47l-2 133q130 50 269 50q140 0 204 -93q48 50 100 71.5t126 21.5q113 0 177 -62t64 -164q0 -66 -22 -118.5t-60.5 -90t-99.5 -67.5t-129.5 -50.5t-159.5 -37.5 l-32 -185q-5 -30 -5 -34q0 -84 97 -84q91 0 266 86l31 -123q-184 -94 -320 -94q-144 0 -196 90q-126 -90 -271 -90q-104 0 -155.5 59t-51.5 158zM170 201q0 -46 24 -69t80 -23q85 0 185 67l41 234h-166q-76 0 -108.5 -30t-47.5 -112q-8 -46 -8 -67zM680 551q56 8 95.5 16.5 t80.5 25t66 39t41 58t16 82.5t-28.5 76t-80.5 29q-75 0 -110 -41t-53 -138z" />
<glyph unicode="&#xe7;" horiz-adv-x="606" d="M33 174q0 19 6 55l90 504q49 271 313 271q107 0 197 -33l-29 -127q-74 24 -155 24q-82 0 -120.5 -34t-53.5 -123l-91 -504q-16 -92 80 -92q95 0 224 47l10 -127q-102 -40 -203 -51l-25 -105q136 -3 136 -123q0 -70 -48.5 -114.5t-130.5 -44.5q-66 0 -124 20l20 84 q50 -16 86 -16q86 0 86 63q0 49 -47 49q-32 0 -51 -8l-45 25l45 170q-83 10 -126.5 60t-43.5 130z" />
<glyph unicode="&#xe8;" horiz-adv-x="696" d="M33 186q0 31 6 66l80 446q29 164 114 235t220 71q114 0 178.5 -62t64.5 -164q0 -114 -76.5 -192t-252.5 -150l-150 -57l-27 -150q-4 -24 -4 -34q0 -84 97 -84q91 0 266 86l31 -123q-184 -94 -320 -94q-111 0 -169 56.5t-58 149.5zM244 526q53 20 110 43q97 38 145 85 t48 118q0 47 -28.5 76t-80.5 29q-75 0 -110.5 -41.5t-53.5 -137.5zM322 1286l92 109q75 -81 192 -174l-86 -99q-100 69 -198 164z" />
<glyph unicode="&#xe9;" horiz-adv-x="696" d="M33 186q0 31 6 66l80 446q29 164 114 235t220 71q114 0 178.5 -62t64.5 -164q0 -114 -76.5 -192t-252.5 -150l-150 -57l-27 -150q-4 -24 -4 -34q0 -84 97 -84q91 0 266 86l31 -123q-184 -94 -320 -94q-111 0 -169 56.5t-58 149.5zM244 526q53 20 110 43q97 38 145 85 t48 118q0 47 -28.5 76t-80.5 29q-75 0 -110.5 -41.5t-53.5 -137.5zM319 1225q134 87 250 170l70 -125q-151 -90 -258 -148z" />
<glyph unicode="&#xea;" horiz-adv-x="696" d="M33 186q0 31 6 66l80 446q29 164 114 235t220 71q114 0 178.5 -62t64.5 -164q0 -114 -76.5 -192t-252.5 -150l-150 -57l-27 -150q-4 -24 -4 -34q0 -84 97 -84q91 0 266 86l31 -123q-184 -94 -320 -94q-111 0 -169 56.5t-58 149.5zM244 526q53 20 110 43q97 38 145 85 t48 118q0 47 -28.5 76t-80.5 29q-75 0 -110.5 -41.5t-53.5 -137.5zM279 1208q27 21 104 81.5t131 105.5q32 -37 91.5 -101t88.5 -96l-82 -76q-49 43 -118 117q-52 -46 -152 -117z" />
<glyph unicode="&#xeb;" horiz-adv-x="696" d="M33 186q0 31 6 66l80 446q29 164 114 235t220 71q114 0 178.5 -62t64.5 -164q0 -114 -76.5 -192t-252.5 -150l-150 -57l-27 -150q-4 -24 -4 -34q0 -84 97 -84q91 0 266 86l31 -123q-184 -94 -320 -94q-111 0 -169 56.5t-58 149.5zM244 526q53 20 110 43q97 38 145 85 t48 118q0 47 -28.5 76t-80.5 29q-75 0 -110.5 -41.5t-53.5 -137.5zM283 1167l30 185h140l-31 -185h-139zM545 1167l30 185h140l-31 -185h-139z" />
<glyph unicode="&#xec;" horiz-adv-x="380" d="M20 0l170 969l162 24l-176 -993h-156zM106 1286l93 109q75 -81 192 -174l-86 -99q-103 72 -199 164z" />
<glyph unicode="&#xed;" horiz-adv-x="380" d="M20 0l170 969l162 24l-176 -993h-156zM172 1225q134 87 250 170l70 -125q-142 -85 -259 -148z" />
<glyph unicode="&#xee;" horiz-adv-x="380" d="M20 0l170 969l162 24l-176 -993h-156zM96 1208q29 23 106 83t130 104q32 -37 91.5 -101t88.5 -96l-82 -76q-55 48 -119 117q-56 -50 -151 -117z" />
<glyph unicode="&#xef;" horiz-adv-x="380" d="M20 0l170 969l162 24l-176 -993h-156zM109 1167l30 185h140l-31 -185h-139zM371 1167l30 185h140l-31 -185h-139z" />
<glyph unicode="&#xf0;" horiz-adv-x="868" d="M57 248q0 42 9 88l53 301q29 163 115.5 230t224.5 67q113 0 207 -60q6 41 6 74q0 119 -66 203l-303 -145l-33 84l267 127q-84 61 -236 104l57 127q212 -52 324 -164l186 90l33 -82l-160 -78q80 -119 80 -278q0 -61 -12 -131l-82 -467q-15 -85 -40.5 -147.5t-68.5 -113 t-111 -76.5t-159 -26q-145 0 -218 73t-73 200zM211 246q0 -69 33 -103t112 -34q102 0 147.5 52t65.5 167l76 428q-76 43 -182 43q-77 0 -125 -38t-66 -134l-51 -291q-10 -55 -10 -90z" />
<glyph unicode="&#xf1;" horiz-adv-x="837" d="M20 0l170 969l134 24l-7 -110q73 52 161.5 86.5t164.5 34.5q75 0 111.5 -39.5t36.5 -106.5q0 -17 -7 -57l-141 -801h-156l140 791q6 36 -9 56.5t-51 20.5q-89 0 -256 -102l-135 -766h-156zM289 1237q52 74 85.5 98.5t84.5 24.5q46 0 98 -37q5 -4 14 -10.5t12.5 -9t10 -7 t10 -6t9 -3.5t10 -2.5t10.5 -0.5q18 0 30 9.5t39 45.5l78 -61q-45 -66 -80 -91.5t-79 -25.5q-48 0 -99 35q-59 41 -78 41q-15 0 -27.5 -8t-20 -17.5t-31.5 -40.5z" />
<glyph unicode="&#xf2;" horiz-adv-x="815" d="M37 240q0 28 6 63l68 383q29 161 115 239.5t253 78.5q134 0 210.5 -76t76.5 -201q0 -35 -6 -76l-62 -350q-57 -321 -381 -321q-123 0 -201.5 71t-78.5 189zM193 246q0 -135 149 -135q83 0 133.5 47t65.5 133l67 385q4 25 4 53q0 66 -35 104.5t-110 38.5 q-84 0 -133.5 -41.5t-67.5 -144.5l-69 -395q-4 -32 -4 -45zM328 1286l92 109q75 -81 192 -174l-86 -99q-100 69 -198 164z" />
<glyph unicode="&#xf3;" horiz-adv-x="815" d="M37 240q0 28 6 63l68 383q29 161 115 239.5t253 78.5q134 0 210.5 -76t76.5 -201q0 -35 -6 -76l-62 -350q-57 -321 -381 -321q-123 0 -201.5 71t-78.5 189zM193 246q0 -135 149 -135q83 0 133.5 47t65.5 133l67 385q4 25 4 53q0 66 -35 104.5t-110 38.5 q-84 0 -133.5 -41.5t-67.5 -144.5l-69 -395q-4 -32 -4 -45zM344 1225q134 87 250 170l70 -125q-151 -90 -258 -148z" />
<glyph unicode="&#xf4;" horiz-adv-x="815" d="M37 240q0 28 6 63l68 383q29 161 115 239.5t253 78.5q134 0 210.5 -76t76.5 -201q0 -35 -6 -76l-62 -350q-57 -321 -381 -321q-123 0 -201.5 71t-78.5 189zM193 246q0 -135 149 -135q83 0 133.5 47t65.5 133l67 385q4 25 4 53q0 66 -35 104.5t-110 38.5 q-84 0 -133.5 -41.5t-67.5 -144.5l-69 -395q-4 -32 -4 -45zM293 1208q27 21 104 81.5t131 105.5q31 -36 90.5 -99.5t90.5 -97.5l-82 -76q-55 48 -119 117q-52 -46 -152 -117z" />
<glyph unicode="&#xf5;" horiz-adv-x="815" d="M37 240q0 28 6 63l68 383q29 161 115 239.5t253 78.5q134 0 210.5 -76t76.5 -201q0 -35 -6 -76l-62 -350q-57 -321 -381 -321q-123 0 -201.5 71t-78.5 189zM193 246q0 -135 149 -135q83 0 133.5 47t65.5 133l67 385q4 25 4 53q0 66 -35 104.5t-110 38.5 q-84 0 -133.5 -41.5t-67.5 -144.5l-69 -395q-4 -32 -4 -45zM276 1237q52 74 85.5 98.5t84.5 24.5q47 0 99 -37q5 -4 14 -10.5t12.5 -9t10 -7t10 -6t9 -3.5t10 -2.5t10.5 -0.5q18 0 30 9.5t39 45.5l78 -61q-45 -66 -80.5 -91.5t-79.5 -25.5q-47 0 -98 35q-59 41 -78 41 q-22 0 -35.5 -12t-44.5 -54z" />
<glyph unicode="&#xf6;" horiz-adv-x="815" d="M37 240q0 28 6 63l68 383q29 161 115 239.5t253 78.5q134 0 210.5 -76t76.5 -201q0 -35 -6 -76l-62 -350q-57 -321 -381 -321q-123 0 -201.5 71t-78.5 189zM193 246q0 -135 149 -135q83 0 133.5 47t65.5 133l67 385q4 25 4 53q0 66 -35 104.5t-110 38.5 q-84 0 -133.5 -41.5t-67.5 -144.5l-69 -395q-4 -32 -4 -45zM311 1167l31 185h139l-30 -185h-140zM573 1167l31 185h139l-30 -185h-140z" />
<glyph unicode="&#xf7;" horiz-adv-x="958" d="M141 637v131h738v-131h-738zM432 258v201h156v-201h-156zM432 946v201h156v-201h-156z" />
<glyph unicode="&#xf8;" horiz-adv-x="819" d="M-23 -57l103 147q-43 61 -43 150q0 28 6 63l68 383q29 161 115 239.5t253 78.5q112 0 187 -56l104 152l64 -47l-113 -164q45 -67 45 -162q0 -35 -6 -76l-62 -350q-57 -321 -381 -321q-107 0 -184 55l-94 -137zM193 256l389 569q-37 47 -115 47q-84 0 -133.5 -41.5 t-67.5 -144.5l-69 -395q-4 -24 -4 -35zM217 156q36 -45 125 -45q83 0 133.5 47t65.5 133l67 385q4 25 4 55z" />
<glyph unicode="&#xf9;" horiz-adv-x="833" d="M37 125q0 23 6 57l139 795l158 10l-139 -794q-13 -78 59 -78q90 0 252 102l133 760l158 10l-172 -987h-125v100q-163 -120 -322 -120q-75 0 -111 39t-36 106zM342 1286l92 109q72 -78 193 -174l-86 -99q-103 72 -199 164z" />
<glyph unicode="&#xfa;" horiz-adv-x="833" d="M37 125q0 23 6 57l139 795l158 10l-139 -794q-13 -78 59 -78q90 0 252 102l133 760l158 10l-172 -987h-125v100q-163 -120 -322 -120q-75 0 -111 39t-36 106zM379 1225q134 87 250 170l69 -125q-151 -90 -258 -148z" />
<glyph unicode="&#xfb;" horiz-adv-x="833" d="M37 125q0 23 6 57l139 795l158 10l-139 -794q-13 -78 59 -78q90 0 252 102l133 760l158 10l-172 -987h-125v100q-163 -120 -322 -120q-75 0 -111 39t-36 106zM315 1208q29 23 106 83t130 104q32 -37 91.5 -101t88.5 -96l-82 -76q-55 48 -119 117q-56 -50 -151 -117z" />
<glyph unicode="&#xfc;" horiz-adv-x="833" d="M37 125q0 23 6 57l139 795l158 10l-139 -794q-13 -78 59 -78q90 0 252 102l133 760l158 10l-172 -987h-125v100q-163 -120 -322 -120q-75 0 -111 39t-36 106zM309 1167l31 185h139l-30 -185h-140zM571 1167l31 185h139l-30 -185h-140z" />
<glyph unicode="&#xfd;" horiz-adv-x="677" d="M-37 -334q119 84 172 147.5t101 186.5h-48l-102 965l152 26l73 -852q128 367 189 537q35 92 35 174q0 31 -11 117l150 28q14 -74 14 -129q0 -106 -37 -202q-194 -493 -284 -707q-69 -158 -130.5 -230.5t-213.5 -168.5zM258 1225q134 87 250 170l70 -125 q-142 -85 -259 -148z" />
<glyph unicode="&#xfe;" horiz-adv-x="839" d="M-55 -428l323 1833l160 25l-94 -529q141 103 268 103q93 0 142 -53.5t49 -137.5q0 -21 -5 -51l-88 -498q-28 -157 -105.5 -220.5t-211.5 -63.5q-109 0 -201 53l-78 -436zM203 150q75 -35 164 -35q82 0 123.5 37.5t56.5 123.5l84 474q4 24 4 36q0 82 -82 82q-36 0 -82 -17 t-77.5 -35t-82.5 -50z" />
<glyph unicode="&#xff;" horiz-adv-x="677" d="M-37 -334q119 84 172 147.5t101 186.5h-48l-102 965l152 26l73 -852q128 367 189 537q35 92 35 174q0 31 -11 117l150 28q14 -74 14 -129q0 -106 -37 -202q-194 -493 -284 -707q-69 -158 -130.5 -230.5t-213.5 -168.5zM203 1167l30 185h140l-31 -185h-139zM465 1167 l31 185h139l-31 -185h-139z" />
<glyph unicode="&#x152;" horiz-adv-x="1337" d="M63 301q0 28 9 84l104 590q33 193 136.5 291t297.5 98h803l-24 -139h-457l-80 -463h418l-25 -139h-418l-86 -484h455l-22 -139h-789q-154 0 -238 82.5t-84 218.5zM223 299q0 -86 44 -123t134 -37h183l190 1086h-182q-109 0 -170.5 -57t-85.5 -193l-105 -590 q-8 -52 -8 -86z" />
<glyph unicode="&#x153;" horiz-adv-x="1191" d="M37 240q0 28 6 63l68 383q29 161 114 239.5t252 78.5q79 0 131 -22.5t97 -78.5q52 58 106.5 79.5t136.5 21.5q114 0 179 -62t65 -164q0 -114 -77 -192t-253 -150l-149 -57l-27 -150q-4 -24 -4 -34q0 -84 96 -84q91 0 266 86l31 -123q-184 -94 -319 -94q-146 0 -199 94 q-53 -47 -110.5 -70.5t-137.5 -23.5q-128 0 -200 69.5t-72 190.5zM193 246q0 -135 149 -135q83 0 133.5 47t65.5 133l67 385q4 25 4 53q0 66 -35 104.5t-110 38.5q-84 0 -133.5 -41.5t-67.5 -144.5l-69 -395q-4 -32 -4 -45zM739 526q54 20 111 43q97 38 144.5 84.5 t47.5 118.5q0 47 -28 76t-80 29q-75 0 -110.5 -41.5t-53.5 -137.5z" />
<glyph unicode="&#x178;" horiz-adv-x="776" d="M158 1364h161l103 -645l326 645h170l-443 -809l-98 -555h-160l98 557zM340 1511l31 185h141l-31 -185h-141zM618 1511l31 185h142l-31 -185h-142z" />
<glyph unicode="&#x2c6;" horiz-adv-x="845" d="M301 1208q29 23 106 83t130 104q32 -37 91.5 -101t88.5 -96l-82 -76q-55 48 -119 117q-56 -50 -151 -117z" />
<glyph unicode="&#x2dc;" horiz-adv-x="911" d="M285 1237q52 74 85.5 98.5t84.5 24.5q46 0 98 -37q5 -4 14 -10.5t12.5 -9t10 -7t10 -6t9 -3.5t10 -2.5t10.5 -0.5q18 0 30 9.5t39 45.5l78 -61q-45 -66 -80.5 -91.5t-79.5 -25.5q-47 0 -98 35q-59 41 -78 41q-22 0 -35.5 -12t-44.5 -54z" />
<glyph unicode="&#x2000;" horiz-adv-x="866" />
<glyph unicode="&#x2001;" horiz-adv-x="1733" />
<glyph unicode="&#x2002;" horiz-adv-x="866" />
<glyph unicode="&#x2003;" horiz-adv-x="1733" />
<glyph unicode="&#x2004;" horiz-adv-x="577" />
<glyph unicode="&#x2005;" horiz-adv-x="433" />
<glyph unicode="&#x2006;" horiz-adv-x="288" />
<glyph unicode="&#x2007;" horiz-adv-x="288" />
<glyph unicode="&#x2008;" horiz-adv-x="216" />
<glyph unicode="&#x2009;" horiz-adv-x="346" />
<glyph unicode="&#x200a;" horiz-adv-x="96" />
<glyph unicode="&#x2010;" horiz-adv-x="624" d="M125 596l22 135h402l-23 -135h-401z" />
<glyph unicode="&#x2011;" horiz-adv-x="624" d="M125 596l22 135h402l-23 -135h-401z" />
<glyph unicode="&#x2012;" horiz-adv-x="624" d="M125 596l22 135h402l-23 -135h-401z" />
<glyph unicode="&#x2013;" horiz-adv-x="940" d="M125 596l22 135h717l-22 -135h-717z" />
<glyph unicode="&#x2014;" horiz-adv-x="1288" d="M125 596l22 135h1065l-22 -135h-1065z" />
<glyph unicode="&#x2018;" horiz-adv-x="374" d="M178 909l39 230l154 250l61 -37l-115 -215h54l-39 -228h-154z" />
<glyph unicode="&#x2019;" horiz-adv-x="358" d="M164 922l115 215h-54l39 227h154l-39 -229l-154 -250z" />
<glyph unicode="&#x201a;" horiz-adv-x="376" d="M-43 -215l115 215h-54l39 227h154l-39 -229l-154 -250z" />
<glyph unicode="&#x201c;" horiz-adv-x="675" d="M178 909l39 230l154 250l61 -37l-115 -215h54l-39 -228h-154zM479 909l39 230l154 250l61 -37l-115 -215h54l-39 -228h-154z" />
<glyph unicode="&#x201d;" horiz-adv-x="659" d="M164 922l115 215h-54l39 227h154l-39 -229l-154 -250zM465 922l115 215h-54l39 227h154l-39 -229l-154 -250z" />
<glyph unicode="&#x201e;" horiz-adv-x="677" d="M-43 -215l115 215h-54l39 227h154l-39 -229l-154 -250zM258 -215l115 215h-54l39 227h154l-39 -229l-154 -250z" />
<glyph unicode="&#x2022;" horiz-adv-x="759" d="M150 621q0 124 76 208t220 84q98 0 153.5 -56t55.5 -146q0 -124 -79.5 -211.5t-217.5 -87.5q-96 0 -152 59.5t-56 149.5z" />
<glyph unicode="&#x2026;" horiz-adv-x="1142" d="M20 0l35 205h156l-35 -205h-156zM401 0l35 205h156l-35 -205h-156zM782 0l35 205h156l-35 -205h-156z" />
<glyph unicode="&#x202f;" horiz-adv-x="346" />
<glyph unicode="&#x2039;" horiz-adv-x="620" d="M125 541l301 417l115 -84l-260 -342l129 -354l-131 -55z" />
<glyph unicode="&#x203a;" horiz-adv-x="616" d="M84 205l256 344l-129 354l131 55l154 -417l-301 -418z" />
<glyph unicode="&#x205f;" horiz-adv-x="433" />
<glyph unicode="&#x20ac;" horiz-adv-x="864" d="M80 457l22 125h129l35 202h-129l23 125h129l24 138q31 175 123 258.5t256 83.5q121 0 223 -29l-26 -131q-98 24 -184 24q-84 0 -131.5 -23t-69 -66.5t-37.5 -127.5l-23 -127h367l-23 -125h-366l-35 -202h367l-23 -125h-366l-21 -119q-10 -58 -10 -94q0 -69 39.5 -101 t140.5 -32q110 0 195 20l-4 -131q-118 -25 -226 -25q-155 0 -227 71.5t-72 197.5q0 50 8 94l21 119h-129z" />
<glyph unicode="&#x2122;" horiz-adv-x="954" d="M217 1292v72h309v-72h-114v-334h-80v334h-115zM590 958l12 406h90l107 -293l106 293h90l13 -406h-76l-6 271l-82 -219h-90l-82 219l-6 -271h-76z" />
<glyph unicode="&#xe000;" horiz-adv-x="993" d="M0 0v993h993v-993h-993z" />
</font>
</defs>
</svg>
