<?xml version="1.0" standalone="no"?>
<!DOCTYPE svg PUBLIC "-//W3C//DTD SVG 1.1//EN" "http://www.w3.org/Graphics/SVG/1.1/DTD/svg11.dtd" >
<svg xmlns="http://www.w3.org/2000/svg">
<metadata></metadata>
<defs>
<font id="klavika_ch_light_condensed_Rg" horiz-adv-x="935" >
<font-face units-per-em="2048" ascent="1536" descent="-512" />
<missing-glyph horiz-adv-x="378" />
<glyph unicode="&#xfb01;" horiz-adv-x="749" d="M-109 -358q71 81 103.5 137.5t46.5 140.5l170 961h-135l16 96h135l39 219q22 125 87 178t169 53q99 0 197 -49l-23 -82q-92 35 -168 35q-68 0 -104 -34t-49 -113l-37 -207h313l58 8l-174 -985h-111l154 881h-256l-172 -973q-19 -100 -61.5 -174t-129.5 -158z" />
<glyph unicode="&#xfb02;" horiz-adv-x="757" d="M-109 -358q71 81 103.5 137.5t46.5 140.5l170 961h-135l16 96h135l39 219q22 124 85.5 177.5t168.5 53.5q89 0 178 -26l95 20l-250 -1421h-111l232 1317q-63 14 -136 14q-72 0 -105.5 -33t-47.5 -114l-37 -207h178l-16 -96h-178l-172 -973q-19 -100 -61.5 -174 t-129.5 -158z" />
<glyph horiz-adv-x="2048" />
<glyph horiz-adv-x="2048" />
<glyph unicode="&#xd;" horiz-adv-x="2048" />
<glyph unicode=" "  horiz-adv-x="378" />
<glyph unicode="&#x09;" horiz-adv-x="378" />
<glyph unicode="&#xa0;" horiz-adv-x="378" />
<glyph unicode="!" horiz-adv-x="374" d="M41 0l29 172h110l-28 -172h-111zM123 338l37 340l121 688h110l-121 -688l-84 -340h-63z" />
<glyph unicode="&#x22;" horiz-adv-x="628" d="M182 868l88 496h99l-88 -496h-99zM467 868l88 496h98l-88 -496h-98z" />
<glyph unicode="#" horiz-adv-x="1050" d="M84 424l20 88h170l84 381h-172l21 88h172l88 383h92l-88 -383h289l88 383h92l-88 -383h166l-21 -88h-166l-83 -381h172l-21 -88h-172l-94 -424h-92l94 424h-289l-94 -424h-92l94 424h-170zM367 512h288l84 381h-288z" />
<glyph unicode="$" horiz-adv-x="761" d="M37 51l24 99q62 -24 107 -35t104 -11q121 0 173.5 53.5t76.5 190.5q13 73 13 115q0 70 -34 110t-136 99q-101 59 -141 113.5t-40 138.5q0 47 13 123q26 147 93 222t197 85l37 196h107l-37 -198q90 -9 170 -35l-19 -90q-107 35 -206 35q-109 0 -159 -47t-73 -171 q-16 -82 -16 -118q0 -50 28 -80.5t113 -85.5q84 -53 125 -88t64.5 -82.5t23.5 -112.5q0 -53 -12 -127q-30 -159 -99 -245t-206 -99l-35 -196h-105l35 196q-99 6 -186 45z" />
<glyph unicode="%" horiz-adv-x="1409" d="M170 829q0 31 6 66l45 254q22 122 84.5 178.5t177.5 56.5q104 0 155.5 -50.5t51.5 -143.5q0 -30 -6 -64l-41 -231q-23 -126 -87 -191t-187 -65q-95 0 -147 50t-52 140zM262 834q0 -56 28 -82.5t89 -26.5q76 0 114.5 39.5t53.5 128.5l43 246q6 35 6 53q0 57 -30 81.5 t-91 24.5q-77 0 -113 -35t-51 -124l-43 -244q-6 -37 -6 -61zM340 16l690 1373l80 -39l-694 -1375zM764 170q0 32 6 66l45 253q22 122 84.5 179t177.5 57q102 0 154.5 -51t52.5 -144q0 -28 -6 -63l-41 -231q-23 -126 -87 -191t-187 -65q-95 0 -147 50t-52 140zM856 174 q0 -56 28 -82t89 -26q76 0 114.5 39t53.5 128l43 246q6 35 6 53q0 57 -30 82t-91 25q-76 0 -112.5 -35.5t-51.5 -124.5l-43 -243q-6 -38 -6 -62z" />
<glyph unicode="&#x26;" horiz-adv-x="1052" d="M55 186q0 24 6 58l19 104q7 37 22.5 71t31.5 58t45.5 53t48 44.5t55.5 45t53 42.5l47 38l-43 72q-31 50 -46 77t-28.5 69t-13.5 83q0 29 6 66l12 70q24 130 103.5 188.5t210.5 58.5q108 0 171.5 -53.5t63.5 -154.5q0 -26 -6 -60l-12 -72q-7 -45 -22 -81t-44 -71t-59 -63 t-84 -73l-76 -66l191 -307l190 262l74 -57l-213 -289l186 -299h-123l-131 207q-33 -45 -62.5 -77.5t-76.5 -70.5t-107.5 -58.5t-130.5 -20.5q-121 0 -189.5 53.5t-68.5 152.5zM168 190q0 -63 37 -90.5t110 -27.5q90 0 162.5 49t143.5 145l18 25l-205 330l-43 -35 q-12 -10 -41.5 -34.5t-40.5 -34t-33.5 -30.5t-32.5 -34.5t-23 -33.5t-20.5 -40.5t-11.5 -44.5l-16 -92q-4 -23 -4 -52zM358 993q0 -47 35 -104l74 -119l84 70q69 58 100.5 99t42.5 105l17 95q4 24 4 37q0 50 -33 84t-111 34q-161 0 -190 -155l-16 -88q-7 -44 -7 -58z" />
<glyph unicode="'" horiz-adv-x="344" d="M182 868l88 496h99l-88 -496h-99z" />
<glyph unicode="(" horiz-adv-x="569" d="M145 342q0 349 108.5 642.5t362.5 653.5l76 -55q-120 -185 -195.5 -322.5t-132.5 -284.5t-81.5 -293t-24.5 -318q0 -153 25.5 -290t87.5 -313l-95 -41q-70 180 -100.5 322t-30.5 299z" />
<glyph unicode=")" horiz-adv-x="569" d="M-70 -223q110 173 184 309.5t134 287.5t88.5 303.5t28.5 317.5q0 152 -25.5 288.5t-87.5 313.5l94 41q69 -179 100 -322t31 -298q0 -343 -109.5 -641.5t-361.5 -655.5z" />
<glyph unicode="*" horiz-adv-x="792" d="M188 1075l13 68h243l-90 219l72 27l86 -211l160 211l53 -43l-154 -203h238l-12 -68h-244l88 -215l-66 -31l-86 207l-157 -209l-53 43l155 205h-246z" />
<glyph unicode="+" horiz-adv-x="958" d="M145 657v91h316v380h98v-380h315v-91h-315v-381h-98v381h-316z" />
<glyph unicode="," horiz-adv-x="352" d="M-27 -188l99 188h-43l28 172h111l-29 -172l-125 -211z" />
<glyph unicode="-" horiz-adv-x="641" d="M137 616l17 97h397l-16 -97h-398z" />
<glyph unicode="." horiz-adv-x="354" d="M31 0l28 172h111l-29 -172h-110z" />
<glyph unicode="/" horiz-adv-x="747" d="M-33 -240l721 1624h109l-725 -1624h-105z" />
<glyph unicode="0" horiz-adv-x="915" d="M78 238q0 42 8 86l125 710q29 171 122 263t271 92q147 0 218 -70t71 -193q0 -48 -8 -92l-125 -708q-15 -81 -41 -142t-71.5 -109.5t-116 -74t-166.5 -25.5q-142 0 -214.5 70.5t-72.5 192.5zM186 240q0 -86 45.5 -127t151.5 -41q119 0 180.5 65t85.5 199l123 698 q10 58 10 94q0 85 -44.5 124.5t-145.5 39.5q-120 0 -185.5 -64.5t-87.5 -193.5l-122 -696q-11 -68 -11 -98z" />
<glyph unicode="1" horiz-adv-x="509" d="M133 1157l285 207h96l-240 -1364h-110l215 1217l-201 -134z" />
<glyph unicode="2" horiz-adv-x="768" d="M-10 0l16 98q193 223 395 469q97 119 133.5 172.5t58 112.5t40.5 170l8 47q10 58 10 88q0 71 -42 102t-142 31q-91 0 -209 -39l-6 99q110 39 248 39q262 0 262 -224q0 -40 -8 -84l-11 -59q-20 -118 -47.5 -193.5t-72.5 -142.5t-138 -174l-356 -414h463l-17 -98h-585z" />
<glyph unicode="3" horiz-adv-x="774" d="M2 20l21 97q121 -43 241 -43q123 0 179 57t77 170l25 139q6 34 6 62q0 75 -44.5 110t-139.5 35h-168l18 101h137q119 0 178 49t78 155l25 140q6 38 6 67q0 70 -39 100.5t-127 30.5q-98 0 -227 -33l-2 99q132 33 252 33q254 0 254 -220q0 -28 -7 -75l-22 -131 q-9 -54 -19.5 -88.5t-33.5 -71t-63.5 -61.5t-102.5 -42q155 -28 155 -200q0 -32 -6 -70l-24 -141q-56 -314 -371 -314q-143 0 -256 45z" />
<glyph unicode="4" horiz-adv-x="854" d="M37 371l20 106l590 887h150l-158 -895h135l-12 -98h-139l-66 -371h-106l65 371h-479zM162 469h370l140 784z" />
<glyph unicode="5" horiz-adv-x="806" d="M31 10l18 99q128 -35 232 -35q125 0 191 54.5t89 184.5l19 107q6 38 6 72q0 86 -52.5 118.5t-166.5 32.5h-213l127 721h532l-16 -98h-424l-94 -525h135q282 0 282 -237q0 -36 -8 -86l-18 -105q-14 -78 -40 -136.5t-70.5 -105.5t-116 -71.5t-167.5 -24.5q-117 0 -245 35z " />
<glyph unicode="6" horiz-adv-x="882" d="M74 242q0 36 6 71l117 662q40 223 139 318.5t293 95.5q57 0 123 -10.5t106 -24.5l-20 -97q-31 11 -96 22t-109 11q-70 0 -119 -12.5t-92 -46t-71.5 -96.5t-45.5 -160l-49 -281q138 74 285 74q113 0 176 -55.5t63 -163.5q0 -33 -6 -74l-31 -174q-57 -326 -372 -326 q-138 0 -217.5 72t-79.5 195zM180 244q0 -89 57 -130.5t152 -41.5q102 0 162 56t82 175l31 172q6 34 6 62q0 70 -42.5 101.5t-135.5 31.5q-118 0 -252 -66l-54 -303q-6 -34 -6 -57z" />
<glyph unicode="7" horiz-adv-x="798" d="M68 0l673 1266h-518l17 98h630l-16 -96l-674 -1268h-112z" />
<glyph unicode="8" horiz-adv-x="913" d="M70 223q0 43 6 78l10 59q22 127 91.5 202.5t207.5 142.5q-83 64 -119.5 124t-36.5 136q0 25 7 69l10 58q26 146 108.5 221.5t235.5 75.5q131 0 206.5 -59.5t75.5 -166.5q0 -31 -6 -69l-12 -72q-35 -194 -264 -322q184 -112 184 -274q0 -30 -6 -68l-12 -67 q-30 -160 -123 -238t-262 -78q-148 0 -224.5 63t-76.5 185zM178 227q0 -84 51 -120.5t158 -36.5q118 0 177 49.5t81 171.5l12 69q7 40 7 64q0 69 -40.5 116.5t-144.5 112.5q-150 -76 -206 -132.5t-76 -162.5l-11 -57q-8 -40 -8 -74zM334 969q0 -66 35.5 -109t126.5 -112 q106 53 171 118t81 156l12 70q6 30 6 55q0 147 -193 147q-103 0 -152 -48t-69 -154l-12 -70q-6 -38 -6 -53z" />
<glyph unicode="9" horiz-adv-x="876" d="M72 10l20 96q31 -11 96 -21.5t109 -10.5q70 0 119 12.5t92 46t71.5 96.5t45.5 160l49 281q-138 -74 -285 -74q-113 0 -176 55.5t-63 163.5q0 33 6 74l30 174q57 326 373 326q138 0 217.5 -72t79.5 -195q0 -36 -6 -71l-117 -662q-40 -223 -139 -318.5t-293 -95.5 q-57 0 -123 10.5t-106 24.5zM260 827q0 -70 42.5 -101.5t135.5 -31.5q118 0 252 66l53 303q7 40 7 57q0 89 -57 130.5t-152 41.5q-102 0 -162 -56t-82 -175l-31 -172q-6 -35 -6 -62z" />
<glyph unicode=":" horiz-adv-x="378" d="M41 0l31 172h110l-30 -172h-111zM162 680l31 172h110l-31 -172h-110z" />
<glyph unicode=";" horiz-adv-x="376" d="M-16 -188l98 188h-43l29 172h110l-28 -172l-125 -211zM160 680l30 172h111l-31 -172h-110z" />
<glyph unicode="&#x3c;" horiz-adv-x="927" d="M106 655v95l687 378l43 -86l-623 -340l623 -340l-43 -86z" />
<glyph unicode="=" horiz-adv-x="942" d="M125 498v90h729v-90h-729zM125 817v90h729v-90h-729z" />
<glyph unicode="&#x3e;" horiz-adv-x="927" d="M154 362l622 340l-622 340l43 86l686 -378v-95l-686 -379z" />
<glyph unicode="?" horiz-adv-x="708" d="M117 0l28 172h111l-29 -172h-110zM182 532l226 199q47 42 69.5 64.5t47 56t37 70t22.5 90.5l16 90q6 38 6 65q0 68 -38.5 95.5t-127.5 27.5q-98 0 -202 -28v98q110 29 229 29q250 0 250 -203q0 -32 -6 -70l-17 -94q-22 -128 -62 -193t-145 -159q-162 -143 -245 -213z" />
<glyph unicode="@" horiz-adv-x="1308" d="M117 567q0 131 29.5 252t90 225.5t145.5 181.5t203.5 121t256.5 44q212 0 332 -125t120 -324q0 -75 -17 -149t-53 -140.5t-85.5 -117.5t-119.5 -81t-151 -30q-40 0 -77 15t-58 42q-86 -63 -180 -63q-50 0 -78.5 26t-28.5 68q0 25 9 49l106 295q28 79 72 111t127 32 q95 0 198 -63l-153 -424q25 -10 65 -10q149 0 239.5 128t90.5 306q0 172 -97.5 270.5t-275.5 98.5q-140 0 -256.5 -58t-195 -158t-121.5 -234.5t-43 -287.5q0 -243 130 -375.5t351 -132.5q114 0 238 35l16 -80q-133 -39 -264 -39q-261 0 -413 164.5t-152 427.5zM539 532 q0 -34 47 -34q57 0 141 51l127 350q-50 21 -94 21q-46 0 -71.5 -16t-43.5 -66l-100 -277q-6 -18 -6 -29z" />
<glyph unicode="A" horiz-adv-x="907" d="M-47 0l584 1364h131l102 -1364h-104l-25 365h-426l-149 -365h-113zM256 463h377l-45 807z" />
<glyph unicode="B" horiz-adv-x="901" d="M41 0l240 1364h378q215 0 215 -182q0 -30 -6 -68l-32 -184q-6 -38 -12 -61.5t-18 -51t-29 -46t-44.5 -36t-66.5 -30.5q79 -13 114 -60t35 -129q0 -40 -6 -74l-31 -174q-24 -135 -103.5 -201.5t-238.5 -66.5h-395zM168 96h274q111 0 160.5 44.5t65.5 138.5l30 176 q7 40 7 63q0 68 -36 99.5t-112 31.5h-293zM283 745h237q97 0 143.5 47.5t61.5 137.5l33 186q4 28 4 47q0 105 -113 105h-274z" />
<glyph unicode="C" horiz-adv-x="722" d="M68 229q0 52 10 107l123 698q34 196 122.5 275.5t251.5 79.5q114 0 218 -37l-19 -95q-116 33 -199 33q-124 0 -181 -54.5t-83 -201.5l-123 -698q-10 -62 -10 -98q0 -92 48.5 -128t154.5 -36q87 0 211 26l2 -96q-111 -29 -229 -29q-149 0 -223 61.5t-74 192.5z" />
<glyph unicode="D" horiz-adv-x="909" d="M41 0l240 1364h307q299 0 299 -274q0 -63 -10 -115l-105 -592q-34 -196 -130.5 -289.5t-293.5 -93.5h-307zM168 98h197q137 0 203.5 67t93.5 218l104 592q10 68 10 108q0 95 -48 139t-159 44h-196z" />
<glyph unicode="E" horiz-adv-x="790" d="M41 0l240 1364h581l-18 -98h-471l-90 -521h434l-19 -98h-434l-96 -549h471l-16 -98h-582z" />
<glyph unicode="F" horiz-adv-x="780" d="M41 0l240 1364h585l-18 -98h-475l-97 -553h439l-19 -99h-438l-106 -614h-111z" />
<glyph unicode="G" horiz-adv-x="872" d="M68 242q0 46 10 108l121 684q36 203 122 279t273 76q144 0 278 -52l-22 -92q-142 45 -272 45q-128 0 -185 -51.5t-84 -204.5l-121 -686q-10 -58 -10 -100q0 -95 51 -135.5t168 -40.5q114 0 191 22l90 508h106l-104 -588q-162 -39 -295 -39q-161 0 -239 66t-78 201z" />
<glyph unicode="H" horiz-adv-x="968" d="M41 0l240 1364h110l-108 -612h481l108 612h111l-240 -1364h-110l115 653h-482l-114 -653h-111z" />
<glyph unicode="I" horiz-adv-x="389" d="M47 0l240 1364h110l-239 -1364h-111z" />
<glyph unicode="J" horiz-adv-x="376" d="M-166 -358q113 124 149 177.5t50 133.5l248 1411h110l-250 -1421q-17 -93 -62 -161t-181 -206z" />
<glyph unicode="K" horiz-adv-x="829" d="M41 0l240 1364h110l-239 -1364h-111zM307 694l492 670h129l-504 -672l285 -692h-117z" />
<glyph unicode="L" horiz-adv-x="739" d="M41 0l240 1364h110l-223 -1266h442l-16 -98h-553z" />
<glyph unicode="M" horiz-adv-x="1220" d="M41 0l240 1364h153l96 -1266l543 1266h162l-240 -1364h-102l215 1223l-522 -1223h-137l-93 1223l-213 -1223h-102z" />
<glyph unicode="N" horiz-adv-x="993" d="M41 0l240 1364h116l301 -1161l205 1161h105l-240 -1364h-117l-301 1161l-205 -1161h-104z" />
<glyph unicode="O" d="M72 258q0 40 10 102l113 644q33 194 130 289.5t279 95.5q154 0 235 -74.5t81 -212.5q0 -30 -11 -98l-112 -644q-35 -196 -131 -290.5t-285 -94.5q-152 0 -230.5 73.5t-78.5 209.5zM182 256q0 -95 49 -138.5t166 -43.5q130 0 196 68t93 218l113 644q10 65 10 98 q0 99 -52 143.5t-163 44.5q-124 0 -193.5 -68t-95.5 -218l-112 -644q-11 -72 -11 -104z" />
<glyph unicode="P" horiz-adv-x="849" d="M41 0l240 1364h352q254 0 254 -221q0 -45 -8 -86l-29 -162q-27 -155 -115.5 -234t-255.5 -79h-225l-102 -582h-111zM270 680h222q114 0 170 51t77 164l29 162q8 58 8 73q0 72 -40.5 104t-129.5 32h-233z" />
<glyph unicode="Q" d="M72 258q0 40 10 102l113 644q33 194 130 289.5t279 95.5q154 0 235 -74.5t81 -212.5q0 -30 -11 -98l-112 -644q-35 -196 -131 -290.5t-285 -94.5q-152 0 -230.5 73.5t-78.5 209.5zM182 -242l19 88q219 -6 415 -57l-20 -92q-181 48 -414 61zM182 256q0 -95 49 -138.5 t166 -43.5q130 0 196 68t93 218l113 644q10 65 10 98q0 99 -52 143.5t-163 44.5q-124 0 -193.5 -68t-95.5 -218l-112 -644q-11 -72 -11 -104z" />
<glyph unicode="R" horiz-adv-x="927" d="M41 0l240 1364h370q254 0 254 -221q0 -45 -8 -86l-29 -164q-22 -127 -84 -200.5t-174 -96.5l164 -596h-117l-155 586h-246l-104 -586h-111zM272 684h240q115 0 170 48.5t76 160.5l28 164q9 65 9 73q0 72 -40.5 104t-129.5 32h-252z" />
<glyph unicode="S" horiz-adv-x="718" d="M6 20l25 99q116 -45 229 -45q64 0 107.5 16t70.5 51.5t41.5 77.5t26.5 109q18 106 18 147q0 71 -36.5 111t-135.5 88q-116 56 -160.5 115.5t-44.5 140.5q0 49 17 139q30 175 113.5 247.5t244.5 72.5q127 0 234 -39l-23 -95q-125 35 -215 35q-123 0 -172.5 -50t-73.5 -183 q-16 -102 -16 -121q0 -54 31.5 -87.5t122.5 -82.5q131 -71 179 -126.5t48 -145.5q0 -40 -19 -156q-15 -93 -39 -157t-66 -112.5t-106.5 -71t-156.5 -22.5q-123 0 -244 45z" />
<glyph unicode="T" horiz-adv-x="745" d="M168 1266l18 98h668l-18 -98h-279l-221 -1266h-111l221 1266h-278z" />
<glyph unicode="U" horiz-adv-x="940" d="M82 248q0 42 10 100l178 1016h111l-178 -1014q-10 -62 -10 -98q0 -93 49 -135.5t155 -42.5q116 0 184 62.5t95 211.5l180 1016h111l-181 -1016q-32 -185 -128 -279t-279 -94q-147 0 -222 71t-75 202z" />
<glyph unicode="V" horiz-adv-x="808" d="M180 1364h109l45 -1233l477 1233h113l-541 -1364h-139z" />
<glyph unicode="W" horiz-adv-x="1325" d="M186 1364h107l10 -1192l440 1192h131l19 -1192l428 1192h111l-502 -1364h-127l-12 1257l-453 -1257h-125z" />
<glyph unicode="X" horiz-adv-x="837" d="M-51 0l446 698l-190 666h108l158 -555l350 555h117l-432 -674l199 -690h-109l-166 578l-364 -578h-117z" />
<glyph unicode="Y" horiz-adv-x="753" d="M172 1364h113l118 -666l353 666h123l-437 -784l-102 -580h-111l103 584z" />
<glyph unicode="Z" horiz-adv-x="776" d="M14 100l703 1168h-486l19 96h571l10 -100l-702 -1168h510l-16 -96h-600z" />
<glyph unicode="[" horiz-adv-x="538" d="M25 -262l331 1880h303l-16 -98h-192l-297 -1684h192l-18 -98h-303z" />
<glyph unicode="\" horiz-adv-x="739" d="M254 1384h100l148 -1624h-96z" />
<glyph unicode="]" horiz-adv-x="538" d="M-68 -262l17 98h192l297 1684h-192l18 98h303l-331 -1880h-304z" />
<glyph unicode="^" horiz-adv-x="815" d="M145 778l250 586h111l250 -586l-84 -33l-221 541l-222 -541z" />
<glyph unicode="_" horiz-adv-x="573" d="M-137 -256l10 47h576l-11 -47h-575z" />
<glyph unicode="`" horiz-adv-x="700" d="M322 1282l63 80q73 -81 172 -162l-55 -70q-118 88 -180 152z" />
<glyph unicode="a" horiz-adv-x="792" d="M49 168q0 30 6 65l80 453q31 171 109 241t237 70q123 0 271 -67l-164 -930h-90l6 117q-134 -137 -271 -137q-93 0 -138.5 50t-45.5 138zM162 178q0 -100 86 -100q47 0 97.5 24t82 49.5t90.5 77.5l113 641q-76 29 -164 29q-60 0 -100 -14.5t-64 -47t-36 -68.5t-23 -95 l-76 -430q-6 -38 -6 -66z" />
<glyph unicode="b" horiz-adv-x="819" d="M37 35l242 1370l112 16l-92 -524q149 100 283 100q89 0 136.5 -46t47.5 -134q0 -37 -6 -74l-80 -452q-30 -167 -119.5 -239t-249.5 -72q-130 0 -274 55zM160 102q79 -24 166 -24q63 0 107 15t71 46t42 69.5t25 94.5l76 428q8 54 8 70q0 53 -25.5 75.5t-80.5 22.5 q-106 0 -266 -98z" />
<glyph unicode="c" horiz-adv-x="604" d="M47 156q0 28 6 65l88 500q27 147 101.5 211.5t199.5 64.5q98 0 183 -32l-23 -93q-76 27 -158 27q-85 0 -131 -45.5t-63 -144.5l-86 -488q-6 -34 -6 -57q0 -47 23 -66.5t75 -19.5q102 0 219 49l10 -92q-51 -22 -122.5 -38.5t-126.5 -16.5q-94 0 -141.5 45t-47.5 131z" />
<glyph unicode="d" horiz-adv-x="833" d="M55 156q0 34 6 75l84 478q28 157 109 222.5t219 65.5q115 0 203 -43l80 451l112 16l-250 -1421h-94l8 104q-165 -124 -296 -124q-181 0 -181 176zM166 166q0 -46 20.5 -67t69.5 -21q64 0 126 31t163 100l114 653q-95 37 -192 37q-94 0 -143 -44.5t-68 -145.5l-84 -478 q-6 -40 -6 -65z" />
<glyph unicode="e" horiz-adv-x="684" d="M43 162q0 29 8 69l82 465q54 301 311 301q107 0 168.5 -58t61.5 -155q0 -116 -75 -190t-230 -135l-179 -64l-30 -174q-6 -37 -6 -53q0 -52 26.5 -72t81.5 -20q102 0 279 92l22 -90q-169 -98 -307 -98q-101 0 -157 47t-56 135zM209 500q105 34 153 53q103 37 154 88.5 t51 132.5q0 57 -28.5 94t-96.5 37q-80 0 -129 -50.5t-69 -158.5z" />
<glyph unicode="f" horiz-adv-x="473" d="M-109 -358q71 81 103.5 137.5t46.5 140.5l170 961h-135l16 96h135l39 219q22 127 83 179t167 52q76 0 146 -28l-21 -90q-65 20 -123 20q-60 0 -94 -29t-47 -104l-39 -219h211l-19 -96h-208l-172 -973q-19 -100 -61.5 -174t-129.5 -158z" />
<glyph unicode="g" horiz-adv-x="817" d="M6 -365l25 95q137 -56 245 -56q99 0 140 37t57 127l47 266q-63 -45 -138 -70.5t-144 -25.5q-91 0 -138 50t-47 135q0 34 6 61l76 432q30 169 115 240t246 71q148 0 280 -69l-194 -1102q-24 -135 -96 -192.5t-205 -57.5q-62 0 -140.5 17t-134.5 42zM164 199 q0 -45 23.5 -69t82.5 -24q112 0 267 99l118 665q-89 29 -174 29q-61 0 -103.5 -15t-68.5 -46t-40.5 -69t-24.5 -95l-72 -408q-8 -46 -8 -67z" />
<glyph unicode="h" horiz-adv-x="823" d="M31 0l248 1405l112 16l-98 -559q202 135 336 135q66 0 102.5 -34t36.5 -99q0 -15 -6 -51l-144 -813h-110l143 813q2 14 2 25q0 61 -67 61q-83 0 -310 -133l-135 -766h-110z" />
<glyph unicode="i" horiz-adv-x="356" d="M31 0l170 969l114 16l-174 -985h-110zM233 1153l41 231l113 17l-39 -232z" />
<glyph unicode="j" horiz-adv-x="356" d="M-176 -358q113 124 149 177.5t50 133.5l178 1016l114 16l-184 -1042q-17 -93 -62 -161t-182 -206zM233 1153l41 231l113 17l-39 -232z" />
<glyph unicode="k" horiz-adv-x="712" d="M31 0l248 1405l112 16l-250 -1421h-110zM270 506l377 491l98 -41l-360 -452l240 -504h-121z" />
<glyph unicode="l" horiz-adv-x="356" d="M31 0l248 1405l112 16l-250 -1421h-110z" />
<glyph unicode="m" horiz-adv-x="1284" d="M31 0l170 969l92 16l-12 -125q205 137 340 137q66 0 102.5 -34.5t36.5 -100.5q79 57 171 96t159 39q66 0 102.5 -34t36.5 -99q0 -15 -6 -51l-144 -813h-110l143 813q2 14 2 25q0 61 -67 61q-77 0 -302 -133l-135 -766h-110l143 813q2 14 2 25q0 61 -67 61 q-77 0 -302 -133l-135 -766h-110z" />
<glyph unicode="n" horiz-adv-x="823" d="M31 0l170 969l92 16l-12 -125q90 62 181.5 99.5t166.5 37.5q66 0 102.5 -34t36.5 -99q0 -15 -6 -51l-144 -813h-110l143 813q2 14 2 25q0 61 -67 61q-83 0 -310 -133l-135 -766h-110z" />
<glyph unicode="o" horiz-adv-x="800" d="M43 223q0 31 6 68l70 395q28 157 115 234t245 77q126 0 195 -63.5t69 -183.5q0 -36 -6 -76l-67 -383q-56 -311 -367 -311q-118 0 -189 64t-71 179zM154 221q0 -76 41 -110.5t127 -34.5q199 0 237 213l70 395q6 38 6 66q0 84 -45.5 117.5t-124.5 33.5q-46 0 -82.5 -10 t-68 -34t-53 -67t-32.5 -104l-69 -397q-6 -35 -6 -68z" />
<glyph unicode="p" horiz-adv-x="823" d="M-43 -420l244 1389l96 16l-8 -113q167 125 297 125q93 0 136.5 -43.5t43.5 -132.5q0 -35 -6 -76l-84 -477q-28 -157 -109 -222.5t-219 -65.5q-115 0 -203 43l-75 -426zM162 115q95 -37 192 -37q94 0 143 44.5t68 145.5l84 477q6 40 6 66q0 46 -20.5 67t-69.5 21 q-106 0 -289 -131z" />
<glyph unicode="q" horiz-adv-x="817" d="M47 160q0 36 6 73l80 453q30 168 116.5 239.5t244.5 71.5q148 0 280 -69l-235 -1331l-113 -17l88 500q-149 -100 -283 -100q-89 0 -136.5 46t-47.5 134zM158 176q0 -53 25.5 -75.5t80.5 -22.5q106 0 266 98l123 694q-89 29 -174 29q-61 0 -103.5 -15t-68.5 -46t-40.5 -69 t-24.5 -95l-76 -428q-8 -46 -8 -70z" />
<glyph unicode="r" horiz-adv-x="473" d="M31 0l170 969l92 16l-12 -149q85 94 233 157l23 -96q-121 -54 -267 -166l-129 -731h-110z" />
<glyph unicode="s" horiz-adv-x="602" d="M10 20l23 95q88 -37 184 -37q92 0 130 37.5t54 128.5q7 40 7 59q0 47 -27.5 82t-99.5 78q-89 54 -126.5 107t-37.5 122q0 30 6 64q24 134 92 187.5t188 53.5q96 0 191 -34l-21 -93q-89 29 -170 29q-85 0 -120.5 -30.5t-49.5 -110.5q-8 -50 -8 -64q0 -40 24.5 -67.5 t96.5 -77.5q53 -37 77.5 -56t51 -48t36 -58.5t9.5 -69.5q0 -17 -8 -75q-22 -132 -93.5 -197t-201.5 -65q-106 0 -207 40z" />
<glyph unicode="t" horiz-adv-x="532" d="M82 879l18 98h138l45 258l114 14l-49 -272h225l-16 -98h-225l-133 -750q-1 -8 -1 -14q0 -37 42 -37q63 0 192 49l19 -84q-132 -63 -224 -63q-139 0 -139 120q0 25 4 50l127 729h-137z" />
<glyph unicode="u" horiz-adv-x="815" d="M43 113q0 15 6 51l144 809l112 8l-145 -817q-2 -14 -2 -25q0 -61 67 -61q90 0 301 133l136 762l110 8l-172 -981h-84l6 117q-198 -137 -340 -137q-66 0 -102.5 34t-36.5 99z" />
<glyph unicode="v" horiz-adv-x="659" d="M98 965l109 22l82 -889l221 564q37 96 37 180q0 58 -12 125l108 20q12 -77 12 -125q0 -114 -37 -207l-270 -655h-143z" />
<glyph unicode="w" horiz-adv-x="1036" d="M72 965l98 22q84 -501 92 -889l256 627l-51 240l94 20l195 -887l129 564q22 99 22 167q0 70 -12 138l104 20q13 -80 13 -137q0 -80 -27 -195l-164 -655h-133l-137 578l-234 -578h-139q-10 269 -34 483.5t-72 481.5z" />
<glyph unicode="x" horiz-adv-x="684" d="M-45 0l340 508l-164 448l102 31l132 -387l243 377h121l-319 -477l182 -500h-113l-141 401l-262 -401h-121z" />
<glyph unicode="y" horiz-adv-x="659" d="M-31 -356q123 87 168 144.5t109 211.5h-43l-101 965l109 22l82 -889l221 564q37 96 37 180q0 58 -12 125l108 20q12 -65 12 -125q0 -116 -36 -207l-265 -655q-54 -135 -91 -200.5t-88 -115.5t-156 -126z" />
<glyph unicode="z" horiz-adv-x="659" d="M14 96l539 787h-393l18 94h477l11 -96l-537 -787h412l-17 -94h-504z" />
<glyph unicode="{" horiz-adv-x="565" d="M104 -135q0 13 7 53l108 617q4 28 4 36q0 31 -18.5 44.5t-61.5 13.5h-30l16 98h31q54 0 77 20t31 68l109 615q19 105 61 146.5t129 41.5h125l-16 -98h-101q-41 0 -60.5 -21.5t-27.5 -68.5l-108 -617q-10 -60 -39.5 -93.5t-99.5 -41.5q96 -5 96 -92q0 -16 -6 -51 l-109 -617q-4 -20 -4 -31q0 -28 15.5 -39.5t50.5 -11.5h96l-17 -98h-102q-78 0 -117 30.5t-39 96.5z" />
<glyph unicode="|" horiz-adv-x="507" d="M66 -262l331 1880h99l-332 -1880h-98z" />
<glyph unicode="}" horiz-adv-x="565" d="M-74 -262l17 98h100q41 0 60.5 21.5t27.5 68.5l109 617q10 60 39.5 93.5t99.5 41.5q-96 5 -96 92q0 16 6 51l108 617q4 20 4 30q0 28 -15 40t-50 12h-96l16 98h102q78 0 117 -30.5t39 -96.5q0 -19 -6 -53l-109 -617q-4 -28 -4 -37q0 -31 18.5 -44t61.5 -13h31l-17 -98 h-30q-54 0 -77.5 -20.5t-31.5 -67.5l-108 -615q-19 -105 -61.5 -146.5t-129.5 -41.5h-125z" />
<glyph unicode="~" horiz-adv-x="835" d="M141 637q16 125 56 185.5t120 60.5q42 0 72.5 -17t89.5 -67q10 -9 27.5 -24.5t24.5 -21.5t19 -15.5t19.5 -13t17 -6.5t19.5 -3q11 0 20 2.5t16.5 8.5t13.5 11.5t11.5 17t9 19.5t8.5 25t7.5 26.5t8 31t8.5 32.5l73 -27q-25 -116 -62.5 -174.5t-113.5 -58.5q-30 0 -58 12 t-44 24t-51 43q-9 7 -13 11q-35 31 -49.5 43t-35 22.5t-40.5 10.5q-22 0 -37.5 -9t-25.5 -21.5t-17.5 -38t-11 -46.5t-8.5 -59z" />
<glyph unicode="&#xa1;" horiz-adv-x="387" d="M-20 -403l120 688l84 340h64l-37 -340l-121 -688h-110zM184 791l29 172h111l-29 -172h-111z" />
<glyph unicode="&#xa2;" horiz-adv-x="704" d="M104 352q0 22 7 66l88 500q23 132 87 196.5t169 73.5l32 176h105l-33 -178q83 -6 146 -29l-23 -92q-76 27 -180 27q-86 0 -132 -44t-63 -143l-86 -487q-6 -34 -6 -58q0 -47 23 -66.5t75 -19.5q51 0 119.5 13.5t122.5 36.5l10 -93q-73 -30 -182 -47l-33 -184h-104l30 176 q-172 6 -172 176z" />
<glyph unicode="&#xa3;" horiz-adv-x="845" d="M10 0l17 98q121 148 180.5 260.5t89.5 255.5h-174l18 99h174l64 356q30 174 108 247t218 73q103 0 186 -29l-19 -94q-81 24 -159 24q-104 0 -153.5 -50.5t-72.5 -182.5l-61 -344h315l-18 -99h-315q-38 -159 -100 -273t-171 -243h525l-17 -98h-635z" />
<glyph unicode="&#xa4;" horiz-adv-x="974" d="M55 211l150 127q-25 52 -25 115q0 43 8 84l52 294q23 134 88 199l-105 131l76 68l109 -133q72 45 180 45q113 0 178 -45l149 131l58 -74l-152 -127q25 -48 25 -115q0 -40 -6 -80l-52 -294q-21 -127 -90 -201l107 -131l-78 -66l-106 133q-68 -47 -185 -47q-105 0 -172 45 l-151 -129zM287 461q0 -78 41 -108.5t123 -30.5q191 0 229 210l53 304q6 40 6 69q0 79 -40.5 110.5t-118.5 31.5q-96 0 -155 -47t-79 -164l-53 -304q-6 -34 -6 -71z" />
<glyph unicode="&#xa5;" horiz-adv-x="798" d="M84 403l16 93h242l16 88l-18 121h-203l17 96h172l-86 563h112l78 -666l311 666h123l-284 -563h170l-17 -96h-203l-61 -125l-14 -84h241l-16 -93h-242l-71 -403h-111l70 403h-242z" />
<glyph unicode="&#xa6;" horiz-adv-x="507" d="M229 -258v754h103v-754h-103zM229 864v754h103v-754h-103z" />
<glyph unicode="&#xa7;" horiz-adv-x="962" d="M209 827q0 174 24 318q24 131 91.5 187.5t183.5 56.5q100 0 190 -37l-18 -90q-79 30 -166 30q-86 0 -122 -35.5t-50 -119.5q-27 -147 -27 -328q0 -323 86 -786l-98 -23q-94 462 -94 827zM287 -346l18 90q91 -31 166 -31q85 0 121.5 36t50.5 120q27 147 27 328 q0 331 -86 786l98 23q94 -449 94 -828q0 -173 -24 -317q-24 -131 -91.5 -187.5t-183.5 -56.5q-100 0 -190 37z" />
<glyph unicode="&#xa8;" horiz-adv-x="819" d="M303 1180l27 145h106l-26 -145h-107zM563 1180l27 145h106l-26 -145h-107z" />
<glyph unicode="&#xa9;" horiz-adv-x="1601" d="M125 682q0 117 29.5 222.5t88.5 193.5t142.5 152t196.5 100t245 36q164 0 298.5 -55t222 -151t135 -224t47.5 -274t-47.5 -273t-135 -223t-222 -151t-298.5 -55q-132 0 -245 36t-196.5 100t-142.5 151.5t-88.5 193t-29.5 221.5zM195 682q0 -133 42.5 -249t121.5 -203 t200 -137t268 -50q196 0 341.5 86.5t218.5 230t73 322.5t-73 323t-218.5 231t-341.5 87q-147 0 -268 -50.5t-200 -137.5t-121.5 -203.5t-42.5 -249.5zM598 555v262q0 225 229 225q95 0 189 -24l-15 -94q-81 20 -157 20q-78 0 -110 -29t-32 -100v-258q0 -71 32 -100t110 -29 q72 0 157 21l15 -95q-94 -24 -189 -24q-229 0 -229 225z" />
<glyph unicode="&#xaa;" horiz-adv-x="681" d="M211 883l57 325q18 100 67.5 140.5t141.5 40.5q99 0 187 -54l-103 -577h-63l8 90q-91 -103 -189 -103q-62 0 -89.5 37t-16.5 101zM291 883q-11 -68 51 -68q59 0 170 115l66 370q-51 19 -99 19q-68 0 -94.5 -28.5t-38.5 -92.5z" />
<glyph unicode="&#xab;" d="M135 532l303 426l76 -55l-272 -371l143 -372l-90 -37zM471 532l303 426l76 -55l-272 -371l143 -372l-90 -37z" />
<glyph unicode="&#xac;" horiz-adv-x="991" d="M154 850v90h729v-471h-99v381h-630z" />
<glyph unicode="&#xad;" horiz-adv-x="641" d="M137 616l17 97h397l-16 -97h-398z" />
<glyph unicode="&#xae;" horiz-adv-x="948" d="M160 1055q0 160 98 265t272 105t271.5 -105t97.5 -265q0 -159 -98 -265t-271 -106q-174 0 -272 106t-98 265zM207 1055q0 -65 19.5 -122.5t58 -104t101.5 -74t144 -27.5q157 0 239.5 95.5t82.5 232.5q0 88 -33 160t-107.5 119.5t-181.5 47.5q-81 0 -144 -27t-101.5 -73.5 t-58 -104t-19.5 -122.5zM416 893v340h155q46 0 67 -21.5t21 -66.5v-51q0 -58 -49 -78l92 -123h-73l-80 113h-74v-113h-59zM475 1055h80q45 0 45 43v43q0 24 -10 33.5t-35 9.5h-80v-129z" />
<glyph unicode="&#xaf;" horiz-adv-x="823" d="M332 1204l16 94h373l-16 -94h-373z" />
<glyph unicode="&#xb0;" horiz-adv-x="655" d="M231 1141q0 110 64 179t176 69q89 0 134.5 -49t45.5 -128q0 -114 -64 -181.5t-179 -67.5q-86 0 -131.5 49.5t-45.5 128.5zM305 1143q0 -115 111 -115q81 0 121.5 47t40.5 135q0 113 -111 113q-77 0 -119.5 -46.5t-42.5 -133.5z" />
<glyph unicode="&#xb1;" horiz-adv-x="905" d="M98 0v90h729v-90h-729zM98 657v91h316v380h98v-380h315v-91h-315v-381h-98v381h-316z" />
<glyph unicode="&#xb2;" horiz-adv-x="749" d="M166 543l14 75l273 267q42 41 59.5 59.5t40 48t32.5 57.5t17 66l10 58q4 32 4 43q0 41 -23.5 59t-80.5 18q-86 0 -172 -26v86q88 26 190 26q179 0 179 -147q0 -19 -7 -59l-6 -35q-17 -95 -50 -153t-107 -130q-40 -39 -80 -76t-88.5 -81.5t-75.5 -69.5h305l-16 -86h-418z " />
<glyph unicode="&#xb3;" horiz-adv-x="714" d="M168 553l18 80q87 -25 154 -25q76 0 110.5 29.5t45.5 93.5l12 72q4 28 4 41q0 40 -23 57t-77 17h-127l14 83h125q108 0 125 101l14 82q12 67 -9.5 89.5t-90.5 22.5q-66 0 -146 -22l-6 82q81 24 185 24q99 0 138.5 -47.5t22.5 -146.5l-14 -82q-20 -118 -131 -141 q92 -18 92 -111q0 -27 -4 -51l-14 -82q-18 -97 -76.5 -146t-171.5 -49q-85 0 -170 29z" />
<glyph unicode="&#xb4;" horiz-adv-x="671" d="M319 1200q103 85 173 162l63 -80q-62 -64 -180 -152z" />
<glyph unicode="&#xb5;" horiz-adv-x="815" d="M-53 -420l246 1393l112 8l-145 -817q-15 -86 65 -86q90 0 301 133l136 762l110 8l-172 -981h-84l6 117q-198 -137 -340 -137q-34 0 -55 8l-68 -391z" />
<glyph unicode="&#xb6;" horiz-adv-x="888" d="M186 860q0 230 124.5 367t340.5 137l-147 -840q-136 0 -227 92t-91 244zM283 -356q23 25 62 65t55.5 57.5t43 46.5t37.5 45t25.5 37.5t21 40.5t9.5 39l245 1389h111l-246 -1401q-8 -43 -22.5 -76t-56.5 -82.5t-83.5 -91.5t-140.5 -137z" />
<glyph unicode="&#xb7;" horiz-adv-x="354" d="M131 578l29 172h110l-28 -172h-111z" />
<glyph unicode="&#xb8;" horiz-adv-x="718" d="M63 -387l19 72q41 -15 88 -15q43 0 69.5 20t26.5 62q0 62 -71 62h-70l61 200h80l-37 -133h17q114 0 114 -114q0 -77 -47 -123.5t-133 -46.5q-68 0 -117 16z" />
<glyph unicode="&#xb9;" horiz-adv-x="573" d="M244 1221l221 143h72l-146 -821h-92l125 698l-145 -86z" />
<glyph unicode="&#xba;" horiz-adv-x="661" d="M217 940l45 256q17 99 69.5 146t149.5 47q95 0 145 -53.5t33 -149.5l-43 -246q-35 -195 -231 -195q-88 0 -136.5 51t-31.5 144zM295 952q-13 -75 14 -106t84 -31q59 0 95 27t49 100l43 242q12 76 -17.5 105.5t-89.5 29.5q-57 0 -90.5 -29t-46.5 -106z" />
<glyph unicode="&#xbb;" d="M90 178l272 371l-143 373l90 36l160 -409l-303 -426zM426 178l272 371l-143 373l90 36l160 -409l-303 -426z" />
<glyph unicode="&#xbc;" horiz-adv-x="1437" d="M264 1221l221 143h72l-145 -821h-93l125 698l-145 -86zM287 -55l727 1470l71 -33l-727 -1472zM727 201l14 82l371 538h113l-95 -538h101l-10 -82h-105l-35 -201h-84l35 201h-305zM823 283h224l77 438z" />
<glyph unicode="&#xbd;" horiz-adv-x="1460" d="M264 1221l221 143h72l-145 -821h-93l125 698l-145 -86zM287 -55l727 1470l71 -33l-727 -1472zM770 0l14 76l273 266q42 41 59.5 59.5t40 48t32.5 57.5t17 66l11 58q4 32 4 43q0 42 -24 60t-81 18q-83 0 -172 -27v86q92 27 191 27q178 0 178 -148q0 -24 -6 -59l-7 -35 q-17 -95 -50 -153t-107 -130q-40 -39 -80 -76t-88.5 -81.5t-75.5 -69.5h305l-16 -86h-418z" />
<glyph unicode="&#xbe;" horiz-adv-x="1519" d="M168 553l18 80q87 -25 154 -25q76 0 110.5 29.5t45.5 93.5l12 72q4 28 4 41q0 40 -23 57t-77 17h-127l14 83h125q108 0 125 101l14 82q12 67 -9.5 89.5t-90.5 22.5q-66 0 -146 -22l-6 82q81 24 185 24q99 0 138.5 -47.5t22.5 -146.5l-14 -82q-20 -118 -131 -141 q92 -18 92 -111q0 -27 -4 -51l-14 -82q-18 -97 -76.5 -146t-171.5 -49q-85 0 -170 29zM369 -55l727 1470l71 -33l-727 -1472zM809 201l14 82l371 538h113l-95 -538h101l-10 -82h-105l-35 -201h-84l35 201h-305zM905 283h223l78 438z" />
<glyph unicode="&#xbf;" horiz-adv-x="743" d="M-4 -221q0 31 6 69l16 95q22 128 62 193t145 159q142 126 246 213l59 -76l-225 -199q-47 -42 -69.5 -64t-47 -55.5t-37 -70t-22.5 -90.5l-16 -90q-7 -44 -7 -66q0 -68 38.5 -95.5t127.5 -27.5q96 0 203 29v-98q-110 -29 -229 -29q-250 0 -250 203zM465 805l29 172h110 l-29 -172h-110z" />
<glyph unicode="&#xc0;" horiz-adv-x="907" d="M-47 0l584 1364h131l102 -1364h-104l-25 365h-426l-149 -365h-113zM256 463h377l-45 807zM430 1616l49 84q91 -75 217 -156l-45 -65q-122 66 -221 137z" />
<glyph unicode="&#xc1;" horiz-adv-x="907" d="M-47 0l584 1364h131l102 -1364h-104l-25 365h-426l-149 -365h-113zM256 463h377l-45 807zM535 1548q103 64 215 152l49 -88q-64 -46 -221 -133z" />
<glyph unicode="&#xc2;" horiz-adv-x="907" d="M-47 0l584 1364h131l102 -1364h-104l-25 365h-426l-149 -365h-113zM256 463h377l-45 807zM440 1542q126 91 209 158q99 -107 156 -162l-55 -59q-24 21 -115 106q-33 -25 -154 -106z" />
<glyph unicode="&#xc3;" horiz-adv-x="907" d="M-47 0l584 1364h131l102 -1364h-104l-25 365h-426l-149 -365h-113zM256 463h377l-45 807zM412 1575q49 60 74.5 79t64.5 19q28 0 49 -8.5t53 -30.5q45 -32 68 -32q19 0 32.5 9.5t43.5 41.5l49 -47q-44 -55 -73.5 -75t-63.5 -20q-46 0 -93 35q-8 6 -18.5 14.5t-16.5 13 t-14.5 8t-17.5 3.5q-22 0 -35 -10t-51 -49z" />
<glyph unicode="&#xc4;" horiz-adv-x="907" d="M-47 0l584 1364h131l102 -1364h-104l-25 365h-426l-149 -365h-113zM256 463h377l-45 807zM438 1520l27 145h106l-26 -145h-107zM709 1520l26 145h107l-27 -145h-106z" />
<glyph unicode="&#xc5;" horiz-adv-x="907" d="M-47 0l571 1333q-28 25 -28 74q0 62 36.5 99.5t102.5 37.5q49 0 76.5 -28t27.5 -70q0 -79 -69 -119l100 -1327h-104l-25 365h-426l-149 -365h-113zM256 463h377l-45 807zM557 1411q0 -47 47 -47q31 0 51.5 23t20.5 55q0 49 -49 49q-31 0 -50.5 -22t-19.5 -58z" />
<glyph unicode="&#xc6;" horiz-adv-x="1230" d="M-47 0l584 1364h766l-19 -98h-610l41 -521h442l-18 -98h-418l41 -549h317l-16 -98h-397l-25 365h-426l-149 -365h-113zM256 463h377l-45 807z" />
<glyph unicode="&#xc7;" horiz-adv-x="722" d="M68 229q0 52 10 107l123 698q34 196 122.5 275.5t251.5 79.5q114 0 218 -37l-19 -95q-116 33 -199 33q-124 0 -181 -54.5t-83 -201.5l-123 -698q-10 -62 -10 -98q0 -93 47 -128.5t156 -35.5q94 0 211 26l2 -96q-110 -26 -219 -29l-25 -94h17q114 0 114 -114 q0 -77 -47 -123.5t-133 -46.5q-68 0 -117 16l19 72q40 -15 88 -15q43 0 69.5 20t26.5 62q0 62 -72 62h-69l49 166q-227 25 -227 249z" />
<glyph unicode="&#xc8;" horiz-adv-x="790" d="M41 0l240 1364h581l-18 -98h-471l-90 -521h434l-19 -98h-434l-96 -549h471l-16 -98h-582zM440 1616l49 84q87 -71 218 -156l-45 -65q-126 68 -222 137z" />
<glyph unicode="&#xc9;" horiz-adv-x="790" d="M41 0l240 1364h581l-18 -98h-471l-90 -521h434l-19 -98h-434l-96 -549h471l-16 -98h-582zM463 1548q103 64 215 152l49 -88q-64 -46 -221 -133z" />
<glyph unicode="&#xca;" horiz-adv-x="790" d="M41 0l240 1364h581l-18 -98h-471l-90 -521h434l-19 -98h-434l-96 -549h471l-16 -98h-582zM418 1542q126 91 209 158q108 -117 155 -162l-55 -59q-24 21 -115 106q-42 -31 -153 -106z" />
<glyph unicode="&#xcb;" horiz-adv-x="790" d="M41 0l240 1364h581l-18 -98h-471l-90 -521h434l-19 -98h-434l-96 -549h471l-16 -98h-582zM408 1520l26 145h107l-27 -145h-106zM678 1520l27 145h106l-27 -145h-106z" />
<glyph unicode="&#xcc;" horiz-adv-x="389" d="M47 0l240 1364h110l-239 -1364h-111zM162 1616l49 84q91 -75 217 -156l-45 -65q-122 66 -221 137z" />
<glyph unicode="&#xcd;" horiz-adv-x="389" d="M47 0l240 1364h110l-239 -1364h-111zM274 1548q103 64 215 152l50 -88q-60 -43 -222 -133z" />
<glyph unicode="&#xce;" horiz-adv-x="389" d="M47 0l240 1364h110l-239 -1364h-111zM180 1542q126 91 209 158q99 -107 156 -162l-56 -59q-3 3 -114 106q-33 -25 -154 -106z" />
<glyph unicode="&#xcf;" horiz-adv-x="389" d="M47 0l240 1364h110l-239 -1364h-111zM186 1520l27 145h106l-26 -145h-107zM457 1520l26 145h107l-27 -145h-106z" />
<glyph unicode="&#xd0;" horiz-adv-x="954" d="M86 0l111 633h-97l17 98h98l111 633h307q299 0 299 -274q0 -63 -10 -115l-105 -592q-34 -196 -130.5 -289.5t-293.5 -93.5h-307zM213 98h197q136 0 203 67t94 218l104 592q10 68 10 108q0 95 -48 139t-159 44h-196l-94 -535h198l-16 -98h-199z" />
<glyph unicode="&#xd1;" horiz-adv-x="993" d="M41 0l240 1364h116l301 -1161l205 1161h105l-240 -1364h-117l-301 1161l-205 -1161h-104zM455 1575q49 60 74.5 79t64.5 19q28 0 49 -8.5t53 -30.5q45 -32 68 -32q19 0 32.5 9.5t43.5 41.5l49 -47q-44 -55 -73.5 -75t-63.5 -20q-46 0 -93 35q-8 6 -18.5 14.5t-16.5 13 t-14.5 8t-17.5 3.5q-22 0 -35 -10t-51 -49z" />
<glyph unicode="&#xd2;" d="M72 258q0 40 10 102l113 644q33 194 130 289.5t279 95.5q154 0 235 -74.5t81 -212.5q0 -30 -11 -98l-112 -644q-35 -196 -131 -290.5t-285 -94.5q-152 0 -230.5 73.5t-78.5 209.5zM182 256q0 -95 49 -138.5t166 -43.5q130 0 196 68t93 218l113 644q10 65 10 98 q0 99 -52 143.5t-163 44.5q-124 0 -193.5 -68t-95.5 -218l-112 -644q-11 -72 -11 -104zM481 1616l49 84q87 -71 218 -156l-46 -65q-122 66 -221 137z" />
<glyph unicode="&#xd3;" d="M72 258q0 40 10 102l113 644q33 194 130 289.5t279 95.5q154 0 235 -74.5t81 -212.5q0 -30 -11 -98l-112 -644q-35 -196 -131 -290.5t-285 -94.5q-152 0 -230.5 73.5t-78.5 209.5zM182 256q0 -95 49 -138.5t166 -43.5q130 0 196 68t93 218l113 644q10 65 10 98 q0 99 -52 143.5t-163 44.5q-124 0 -193.5 -68t-95.5 -218l-112 -644q-11 -72 -11 -104zM494 1548q103 64 215 152l49 -88q-64 -46 -221 -133z" />
<glyph unicode="&#xd4;" d="M72 258q0 40 10 102l113 644q33 194 130 289.5t279 95.5q154 0 235 -74.5t81 -212.5q0 -30 -11 -98l-112 -644q-35 -196 -131 -290.5t-285 -94.5q-152 0 -230.5 73.5t-78.5 209.5zM182 256q0 -95 49 -138.5t166 -43.5q130 0 196 68t93 218l113 644q10 65 10 98 q0 99 -52 143.5t-163 44.5q-124 0 -193.5 -68t-95.5 -218l-112 -644q-11 -72 -11 -104zM451 1542q116 84 208 158q99 -107 156 -162l-55 -59q-24 21 -115 106q-42 -31 -153 -106z" />
<glyph unicode="&#xd5;" d="M72 258q0 40 10 102l113 644q33 194 130 289.5t279 95.5q154 0 235 -74.5t81 -212.5q0 -30 -11 -98l-112 -644q-35 -196 -131 -290.5t-285 -94.5q-152 0 -230.5 73.5t-78.5 209.5zM182 256q0 -95 49 -138.5t166 -43.5q130 0 196 68t93 218l113 644q10 65 10 98 q0 99 -52 143.5t-163 44.5q-124 0 -193.5 -68t-95.5 -218l-112 -644q-11 -72 -11 -104zM424 1575q49 60 74.5 79t64.5 19q29 0 50 -8.5t53 -30.5q45 -32 67 -32q19 0 32.5 9.5t43.5 41.5l49 -47q-44 -55 -73.5 -75t-63.5 -20q-45 0 -92 35q-8 6 -19 14.5t-17 13t-14.5 8 t-17.5 3.5q-22 0 -35 -10t-51 -49z" />
<glyph unicode="&#xd6;" d="M72 258q0 40 10 102l113 644q33 194 130 289.5t279 95.5q154 0 235 -74.5t81 -212.5q0 -30 -11 -98l-112 -644q-35 -196 -131 -290.5t-285 -94.5q-152 0 -230.5 73.5t-78.5 209.5zM182 256q0 -95 49 -138.5t166 -43.5q130 0 196 68t93 218l113 644q10 65 10 98 q0 99 -52 143.5t-163 44.5q-124 0 -193.5 -68t-95.5 -218l-112 -644q-11 -72 -11 -104zM463 1520l26 145h107l-27 -145h-106zM733 1520l27 145h106l-26 -145h-107z" />
<glyph unicode="&#xd7;" horiz-adv-x="942" d="M164 418l285 284l-285 285l63 64l285 -285l285 285l63 -64l-285 -285l285 -284l-63 -64l-285 285l-285 -285z" />
<glyph unicode="&#xd8;" horiz-adv-x="940" d="M4 -84l107 182q-37 64 -37 160q0 40 10 102l113 644q33 194 130 289.5t279 95.5q145 0 225 -68l99 166l61 -37l-110 -186q41 -68 41 -162q0 -30 -11 -98l-112 -644q-35 -196 -131 -290.5t-285 -94.5q-141 0 -221 64l-96 -162zM184 256q0 -23 2 -33l590 1004 q-48 63 -180 63q-124 0 -193.5 -68t-95.5 -218l-112 -644q-11 -72 -11 -104zM217 133q45 -59 182 -59q130 0 196 68t93 218l113 644q10 65 10 98q0 6 -1 18.5t-1 18.5z" />
<glyph unicode="&#xd9;" horiz-adv-x="940" d="M82 248q0 42 10 100l178 1016h111l-178 -1014q-10 -62 -10 -98q0 -93 49 -135.5t155 -42.5q116 0 184 62.5t95 211.5l180 1016h111l-181 -1016q-32 -185 -128 -279t-279 -94q-147 0 -222 71t-75 202zM473 1616l49 84q91 -75 217 -156l-45 -65q-122 66 -221 137z" />
<glyph unicode="&#xda;" horiz-adv-x="940" d="M82 248q0 42 10 100l178 1016h111l-178 -1014q-10 -62 -10 -98q0 -93 49 -135.5t155 -42.5q116 0 184 62.5t95 211.5l180 1016h111l-181 -1016q-32 -185 -128 -279t-279 -94q-147 0 -222 71t-75 202zM520 1548q103 64 215 152l49 -88q-64 -46 -221 -133z" />
<glyph unicode="&#xdb;" horiz-adv-x="940" d="M82 248q0 42 10 100l178 1016h111l-178 -1014q-10 -62 -10 -98q0 -93 49 -135.5t155 -42.5q116 0 184 62.5t95 211.5l180 1016h111l-181 -1016q-32 -185 -128 -279t-279 -94q-147 0 -222 71t-75 202zM453 1542q126 91 209 158q108 -117 155 -162l-55 -59q-24 21 -115 106 q-42 -31 -153 -106z" />
<glyph unicode="&#xdc;" horiz-adv-x="940" d="M82 248q0 42 10 100l178 1016h111l-178 -1014q-10 -62 -10 -98q0 -93 49 -135.5t155 -42.5q116 0 184 62.5t95 211.5l180 1016h111l-181 -1016q-32 -185 -128 -279t-279 -94q-147 0 -222 71t-75 202zM453 1520l26 145h107l-27 -145h-106zM723 1520l27 145h106l-27 -145 h-106z" />
<glyph unicode="&#xdd;" horiz-adv-x="753" d="M172 1364h113l118 -666l353 666h123l-437 -784l-102 -580h-111l103 584zM428 1548q103 64 215 152l49 -88q-64 -46 -221 -133z" />
<glyph unicode="&#xde;" horiz-adv-x="851" d="M41 0l242 1364h110l-51 -285h240q254 0 254 -221q0 -40 -9 -86l-28 -162q-27 -155 -115.5 -234t-255.5 -79h-225l-51 -297h-111zM221 395h219q114 0 170.5 51t77.5 164l29 162q8 58 8 74q0 72 -40 103.5t-130 31.5h-231z" />
<glyph unicode="&#xdf;" horiz-adv-x="894" d="M-143 -358q70 80 102.5 136.5t46.5 141.5l207 1172q30 172 118 244.5t238 72.5q118 0 185 -59t67 -160q0 -33 -6 -65.5t-12.5 -55.5t-23 -55.5t-25 -47.5t-31 -51.5t-29.5 -48.5q-15 -26 -42 -68t-39 -62t-22.5 -46.5t-10.5 -48.5q0 -29 20 -54.5t84 -86.5 q63 -59 88 -103.5t25 -101.5q0 -35 -9 -84q-18 -107 -80 -164t-180 -57q-92 0 -178 28l21 97q85 -27 151 -27q79 0 114 32.5t46 100.5q6 27 6 51q0 47 -22.5 80t-81.5 86q-66 60 -91.5 100.5t-25.5 86.5q0 24 6 49.5t12.5 44.5t22 47t24 42t29 45t27.5 42q4 7 26.5 41.5 t27 42.5t21 36.5t20.5 41.5t12.5 37t11 45t2.5 45q0 65 -41.5 98t-112.5 33q-97 0 -153.5 -53t-77.5 -170l-209 -1184q-19 -100 -61.5 -174t-129.5 -158z" />
<glyph unicode="&#xe0;" horiz-adv-x="792" d="M49 168q0 30 6 65l80 453q31 171 109 241t237 70q123 0 271 -67l-164 -930h-90l6 117q-134 -137 -271 -137q-93 0 -138.5 50t-45.5 138zM162 178q0 -100 86 -100q47 0 97.5 24t82 49.5t90.5 77.5l113 641q-76 29 -164 29q-60 0 -100 -14.5t-64 -47t-36 -68.5t-23 -95 l-76 -430q-6 -38 -6 -66zM362 1282l64 80q73 -81 172 -162l-55 -70q-122 90 -181 152z" />
<glyph unicode="&#xe1;" horiz-adv-x="792" d="M49 168q0 30 6 65l80 453q31 171 109 241t237 70q123 0 271 -67l-164 -930h-90l6 117q-134 -137 -271 -137q-93 0 -138.5 50t-45.5 138zM162 178q0 -100 86 -100q47 0 97.5 24t82 49.5t90.5 77.5l113 641q-76 29 -164 29q-60 0 -100 -14.5t-64 -47t-36 -68.5t-23 -95 l-76 -430q-6 -38 -6 -66zM399 1200q99 81 172 162l64 -80q-62 -64 -180 -152z" />
<glyph unicode="&#xe2;" horiz-adv-x="792" d="M49 168q0 30 6 65l80 453q31 171 109 241t237 70q123 0 271 -67l-164 -930h-90l6 117q-134 -137 -271 -137q-93 0 -138.5 50t-45.5 138zM162 178q0 -100 86 -100q47 0 97.5 24t82 49.5t90.5 77.5l113 641q-76 29 -164 29q-60 0 -100 -14.5t-64 -47t-36 -68.5t-23 -95 l-76 -430q-6 -38 -6 -66zM328 1194q10 8 84.5 66.5t124.5 101.5q30 -34 80.5 -89t74.5 -83l-55 -60q-76 73 -115 117q-40 -33 -153 -117z" />
<glyph unicode="&#xe3;" horiz-adv-x="792" d="M49 168q0 30 6 65l80 453q31 171 109 241t237 70q123 0 271 -67l-164 -930h-90l6 117q-134 -137 -271 -137q-93 0 -138.5 50t-45.5 138zM162 178q0 -100 86 -100q47 0 97.5 24t82 49.5t90.5 77.5l113 641q-76 29 -164 29q-60 0 -100 -14.5t-64 -47t-36 -68.5t-23 -95 l-76 -430q-6 -38 -6 -66zM305 1233q49 60 74.5 79t64.5 19q29 0 50 -8.5t53 -30.5q45 -32 67 -32q19 0 32.5 9.5t43.5 41.5l49 -47q-44 -55 -73.5 -75t-63.5 -20q-45 0 -92 35q-8 6 -19 14.5t-17 13t-14.5 8t-17.5 3.5q-22 0 -35 -10t-51 -49z" />
<glyph unicode="&#xe4;" horiz-adv-x="792" d="M49 168q0 30 6 65l80 453q31 171 109 241t237 70q123 0 271 -67l-164 -930h-90l6 117q-134 -137 -271 -137q-93 0 -138.5 50t-45.5 138zM162 178q0 -100 86 -100q47 0 97.5 24t82 49.5t90.5 77.5l113 641q-76 29 -164 29q-60 0 -100 -14.5t-64 -47t-36 -68.5t-23 -95 l-76 -430q-6 -38 -6 -66zM338 1180l27 145h106l-27 -145h-106zM598 1180l27 145h106l-26 -145h-107z" />
<glyph unicode="&#xe5;" horiz-adv-x="792" d="M49 168q0 30 6 65l80 453q31 171 109 241t237 70q123 0 271 -67l-164 -930h-90l6 117q-134 -137 -271 -137q-93 0 -138.5 50t-45.5 138zM162 178q0 -100 86 -100q47 0 97.5 24t82 49.5t90.5 77.5l113 641q-76 29 -164 29q-60 0 -100 -14.5t-64 -47t-36 -68.5t-23 -95 l-76 -430q-6 -38 -6 -66zM412 1241q0 58 39 97.5t102 39.5q49 0 75.5 -28t26.5 -70q0 -56 -40 -96.5t-103 -40.5q-47 0 -73.5 28t-26.5 70zM473 1245q0 -47 47 -47q31 0 51.5 23t20.5 55q0 49 -49 49q-31 0 -50.5 -22t-19.5 -58z" />
<glyph unicode="&#xe6;" horiz-adv-x="1095" d="M4 172q0 47 8 94q25 140 88.5 192t190.5 52h221l39 219q6 35 6 64q0 55 -29.5 80.5t-103.5 25.5q-109 0 -242 -43l-4 98q140 43 256 43q78 0 124.5 -22t76.5 -78q85 100 221 100q106 0 167.5 -57t61.5 -158q0 -69 -24 -123.5t-64 -92t-104 -67t-130.5 -48t-156.5 -35.5 l-35 -195q-6 -37 -6 -53q0 -52 26.5 -72t82.5 -20q101 0 278 92l23 -90q-169 -98 -307 -98q-165 0 -203 112q-54 -50 -127.5 -81t-149.5 -31q-184 0 -184 192zM109 180q0 -58 21.5 -83t82.5 -25q121 0 242 118l41 226h-195q-96 0 -132.5 -32.5t-51.5 -129.5q-8 -54 -8 -74z M623 512q68 14 114.5 26.5t96 34t78.5 47t48 65t19 89.5q0 129 -125 129q-81 0 -130 -50t-69 -157z" />
<glyph unicode="&#xe7;" horiz-adv-x="604" d="M47 156q0 28 6 65l88 500q27 147 101.5 211.5t199.5 64.5q98 0 183 -32l-23 -93q-76 27 -158 27q-85 0 -131 -45.5t-63 -144.5l-86 -488q-6 -34 -6 -57q0 -47 23 -66.5t75 -19.5q102 0 219 49l10 -92q-92 -40 -209 -53l-26 -101h16q115 0 115 -114q0 -77 -47 -123.5 t-133 -46.5q-68 0 -117 16l18 72q40 -15 88 -15q43 0 70 20t27 62q0 62 -72 62h-70l52 168q-150 18 -150 174z" />
<glyph unicode="&#xe8;" horiz-adv-x="684" d="M43 162q0 29 8 69l82 465q54 301 311 301q107 0 168.5 -58t61.5 -155q0 -116 -75 -190t-230 -135l-179 -64l-30 -174q-6 -37 -6 -53q0 -52 26.5 -72t81.5 -20q102 0 279 92l22 -90q-169 -98 -307 -98q-101 0 -157 47t-56 135zM209 500q105 34 153 53q103 37 154 88.5 t51 132.5q0 57 -28.5 94t-96.5 37q-80 0 -129 -50.5t-69 -158.5zM303 1282l64 80q73 -81 172 -162l-56 -70q-118 88 -180 152z" />
<glyph unicode="&#xe9;" horiz-adv-x="684" d="M43 162q0 29 8 69l82 465q54 301 311 301q107 0 168.5 -58t61.5 -155q0 -116 -75 -190t-230 -135l-179 -64l-30 -174q-6 -37 -6 -53q0 -52 26.5 -72t81.5 -20q102 0 279 92l22 -90q-169 -98 -307 -98q-101 0 -157 47t-56 135zM209 500q105 34 153 53q103 37 154 88.5 t51 132.5q0 57 -28.5 94t-96.5 37q-80 0 -129 -50.5t-69 -158.5zM362 1200q103 85 173 162l63 -80q-62 -64 -180 -152z" />
<glyph unicode="&#xea;" horiz-adv-x="684" d="M43 162q0 29 8 69l82 465q54 301 311 301q107 0 168.5 -58t61.5 -155q0 -116 -75 -190t-230 -135l-179 -64l-30 -174q-6 -37 -6 -53q0 -52 26.5 -72t81.5 -20q102 0 279 92l22 -90q-169 -98 -307 -98q-101 0 -157 47t-56 135zM209 500q105 34 153 53q103 37 154 88.5 t51 132.5q0 57 -28.5 94t-96.5 37q-80 0 -129 -50.5t-69 -158.5zM293 1194q10 8 84.5 66.5t124.5 101.5q30 -34 80.5 -89t74.5 -83l-55 -60q-76 73 -115 117q-40 -33 -153 -117z" />
<glyph unicode="&#xeb;" horiz-adv-x="684" d="M43 162q0 29 8 69l82 465q54 301 311 301q107 0 168.5 -58t61.5 -155q0 -116 -75 -190t-230 -135l-179 -64l-30 -174q-6 -37 -6 -53q0 -52 26.5 -72t81.5 -20q102 0 279 92l22 -90q-169 -98 -307 -98q-101 0 -157 47t-56 135zM209 500q105 34 153 53q103 37 154 88.5 t51 132.5q0 57 -28.5 94t-96.5 37q-80 0 -129 -50.5t-69 -158.5zM291 1180l26 145h107l-27 -145h-106zM551 1180l27 145h106l-27 -145h-106z" />
<glyph unicode="&#xec;" horiz-adv-x="356" d="M31 0l170 969l114 16l-174 -985h-110zM100 1282l64 80q73 -81 172 -162l-55 -70q-122 90 -181 152z" />
<glyph unicode="&#xed;" horiz-adv-x="356" d="M31 0l170 969l114 16l-174 -985h-110zM195 1200q99 81 172 162l63 -80q-62 -64 -180 -152z" />
<glyph unicode="&#xee;" horiz-adv-x="356" d="M31 0l170 969l114 16l-174 -985h-110zM102 1194q10 8 84.5 66.5t124.5 101.5q30 -34 81 -89t75 -83l-55 -60q-76 73 -115 117q-30 -25 -154 -117z" />
<glyph unicode="&#xef;" horiz-adv-x="356" d="M31 0l170 969l114 16l-174 -985h-110zM106 1180l27 145h107l-27 -145h-107zM367 1180l26 145h107l-27 -145h-106z" />
<glyph unicode="&#xf0;" horiz-adv-x="829" d="M72 326l53 303q31 175 113 246t217 71q128 0 227 -61q12 173 -68 289l-295 -142l-30 72l274 131q-88 82 -246 127l39 84q198 -53 297 -168l183 88l32 -70l-166 -79q50 -70 72.5 -181t1.5 -233l-82 -467q-15 -83 -39 -144t-65.5 -112.5t-107.5 -78t-156 -26.5 q-153 0 -217 96.5t-37 254.5zM180 326q-23 -126 15.5 -191t148.5 -65q112 0 164.5 63t77.5 203l80 455q-51 29 -97 43t-112 14q-98 0 -150.5 -49t-73.5 -170z" />
<glyph unicode="&#xf1;" horiz-adv-x="823" d="M31 0l170 969l92 16l-12 -125q90 62 181.5 99.5t166.5 37.5q66 0 102.5 -34t36.5 -99q0 -15 -6 -51l-144 -813h-110l143 813q15 86 -65 86q-83 0 -310 -133l-135 -766h-110zM303 1233q49 60 74.5 79t64.5 19q29 0 50 -8.5t53 -30.5q45 -32 67 -32q19 0 32.5 9.5 t43.5 41.5l49 -47q-44 -55 -73.5 -75t-63.5 -20q-45 0 -92 35q-8 6 -19 14.5t-17 13t-14.5 8t-17.5 3.5q-22 0 -35 -10t-51 -49z" />
<glyph unicode="&#xf2;" horiz-adv-x="800" d="M43 223q0 31 6 68l70 395q28 157 115 234t245 77q126 0 195 -63.5t69 -183.5q0 -36 -6 -76l-67 -383q-56 -311 -367 -311q-118 0 -189 64t-71 179zM154 221q0 -76 41 -110.5t127 -34.5q199 0 237 213l70 395q6 38 6 66q0 84 -45.5 117.5t-124.5 33.5q-46 0 -82.5 -10 t-68 -34t-53 -67t-32.5 -104l-69 -397q-6 -35 -6 -68zM360 1282l64 80q73 -81 172 -162l-55 -70q-122 90 -181 152z" />
<glyph unicode="&#xf3;" horiz-adv-x="800" d="M43 223q0 31 6 68l70 395q28 157 115 234t245 77q126 0 195 -63.5t69 -183.5q0 -36 -6 -76l-67 -383q-56 -311 -367 -311q-118 0 -189 64t-71 179zM154 221q0 -76 41 -110.5t127 -34.5q199 0 237 213l70 395q6 38 6 66q0 84 -45.5 117.5t-124.5 33.5q-46 0 -82.5 -10 t-68 -34t-53 -67t-32.5 -104l-69 -397q-6 -35 -6 -68zM391 1200q99 81 172 162l64 -80q-59 -62 -181 -152z" />
<glyph unicode="&#xf4;" horiz-adv-x="800" d="M43 223q0 31 6 68l70 395q28 157 115 234t245 77q126 0 195 -63.5t69 -183.5q0 -36 -6 -76l-67 -383q-56 -311 -367 -311q-118 0 -189 64t-71 179zM154 221q0 -76 41 -110.5t127 -34.5q199 0 237 213l70 395q6 38 6 66q0 84 -45.5 117.5t-124.5 33.5q-46 0 -82.5 -10 t-68 -34t-53 -67t-32.5 -104l-69 -397q-6 -35 -6 -68zM315 1194q10 8 84.5 66.5t124.5 101.5q30 -34 81 -89t75 -83l-55 -60q-76 73 -115 117q-30 -25 -154 -117z" />
<glyph unicode="&#xf5;" horiz-adv-x="800" d="M43 223q0 31 6 68l70 395q28 157 115 234t245 77q126 0 195 -63.5t69 -183.5q0 -36 -6 -76l-67 -383q-56 -311 -367 -311q-118 0 -189 64t-71 179zM154 221q0 -76 41 -110.5t127 -34.5q199 0 237 213l70 395q6 38 6 66q0 84 -45.5 117.5t-124.5 33.5q-46 0 -82.5 -10 t-68 -34t-53 -67t-32.5 -104l-69 -397q-6 -35 -6 -68zM299 1233q49 60 74.5 79t64.5 19q29 0 50 -8.5t53 -30.5q45 -32 67 -32q19 0 32.5 9.5t43.5 41.5l49 -47q-44 -55 -73.5 -75t-63.5 -20q-45 0 -92 35q-8 6 -19 14.5t-17 13t-14.5 8t-17.5 3.5q-22 0 -35 -10t-51 -49z " />
<glyph unicode="&#xf6;" horiz-adv-x="800" d="M43 223q0 31 6 68l70 395q28 157 115 234t245 77q126 0 195 -63.5t69 -183.5q0 -36 -6 -76l-67 -383q-56 -311 -367 -311q-118 0 -189 64t-71 179zM154 221q0 -76 41 -110.5t127 -34.5q199 0 237 213l70 395q6 38 6 66q0 84 -45.5 117.5t-124.5 33.5q-46 0 -82.5 -10 t-68 -34t-53 -67t-32.5 -104l-69 -397q-6 -35 -6 -68zM319 1180l27 145h107l-27 -145h-107zM580 1180l26 145h107l-27 -145h-106z" />
<glyph unicode="&#xf7;" horiz-adv-x="978" d="M180 657v91h729v-91h-729zM487 276v177h115v-177h-115zM487 952v176h115v-176h-115z" />
<glyph unicode="&#xf8;" horiz-adv-x="808" d="M-10 -63l96 145q-39 62 -39 141q0 31 6 68l70 395q28 157 115 234t245 77q104 0 172 -47l97 148l57 -39l-104 -158q43 -54 43 -151q0 -29 -7 -76l-67 -383q-56 -311 -367 -311q-104 0 -174 51l-88 -135zM158 221q0 -18 2 -26l438 667q-42 39 -129 39q-46 0 -82.5 -10 t-68 -34t-53 -67t-32.5 -104l-69 -397q-6 -35 -6 -68zM190 117q41 -41 136 -41q199 0 237 213l70 395q6 38 6 66q0 19 -4 43z" />
<glyph unicode="&#xf9;" horiz-adv-x="815" d="M43 113q0 15 6 51l144 809l112 8l-145 -817q-15 -86 65 -86q90 0 301 133l136 762l110 8l-172 -981h-84l6 117q-198 -137 -340 -137q-66 0 -102.5 34t-36.5 99zM365 1282l63 80q73 -81 172 -162l-55 -70q-118 88 -180 152z" />
<glyph unicode="&#xfa;" horiz-adv-x="815" d="M43 113q0 15 6 51l144 809l112 8l-145 -817q-15 -86 65 -86q90 0 301 133l136 762l110 8l-172 -981h-84l6 117q-198 -137 -340 -137q-66 0 -102.5 34t-36.5 99zM406 1200q99 81 172 162l63 -80q-62 -64 -180 -152z" />
<glyph unicode="&#xfb;" horiz-adv-x="815" d="M43 113q0 15 6 51l144 809l112 8l-145 -817q-15 -86 65 -86q90 0 301 133l136 762l110 8l-172 -981h-84l6 117q-198 -137 -340 -137q-66 0 -102.5 34t-36.5 99zM340 1194q10 8 84.5 66.5t124.5 101.5q30 -34 81 -89t75 -83l-56 -60q-69 66 -114 117q-30 -25 -154 -117z " />
<glyph unicode="&#xfc;" horiz-adv-x="815" d="M43 113q0 15 6 51l144 809l112 8l-145 -817q-15 -86 65 -86q90 0 301 133l136 762l110 8l-172 -981h-84l6 117q-198 -137 -340 -137q-66 0 -102.5 34t-36.5 99zM340 1180l27 145h106l-27 -145h-106zM600 1180l27 145h106l-26 -145h-107z" />
<glyph unicode="&#xfd;" horiz-adv-x="659" d="M-31 -356q123 87 168 144.5t109 211.5h-43l-101 965l109 22l82 -889l221 564q37 96 37 180q0 58 -12 125l108 20q12 -65 12 -125q0 -116 -36 -207l-265 -655q-54 -135 -91 -200.5t-88 -115.5t-156 -126zM283 1200q99 81 172 162l63 -80q-62 -64 -180 -152z" />
<glyph unicode="&#xfe;" horiz-adv-x="823" d="M-43 -420l319 1825l113 16l-98 -547q164 123 295 123q93 0 136.5 -43.5t43.5 -132.5q0 -35 -6 -76l-84 -477q-28 -157 -109 -222.5t-219 -65.5q-115 0 -203 43l-75 -426zM162 115q95 -37 192 -37q94 0 143 44.5t68 145.5l84 477q6 40 6 66q0 46 -20.5 67t-69.5 21 q-106 0 -289 -131z" />
<glyph unicode="&#xff;" horiz-adv-x="659" d="M-31 -356q123 87 168 144.5t109 211.5h-43l-101 965l109 22l82 -889l221 564q37 96 37 180q0 58 -12 125l108 20q12 -65 12 -125q0 -116 -36 -207l-265 -655q-54 -135 -91 -200.5t-88 -115.5t-156 -126zM217 1180l27 145h106l-26 -145h-107zM477 1180l27 145h106 l-26 -145h-107z" />
<glyph unicode="&#x152;" horiz-adv-x="1298" d="M72 283q0 40 10 102l104 594q33 193 130 289t280 96h774l-18 -98h-471l-90 -521h434l-19 -98h-434l-96 -549h471l-17 -98h-749q-152 0 -230.5 73.5t-78.5 209.5zM182 281q0 -96 49.5 -139.5t165.5 -43.5h168l205 1168h-184q-124 0 -193.5 -68.5t-95.5 -218.5l-104 -594 q-11 -72 -11 -104z" />
<glyph unicode="&#x153;" horiz-adv-x="1181" d="M43 223q0 31 6 68l70 395q28 157 115 234t245 77q85 0 136.5 -26.5t95.5 -93.5q45 66 100.5 93t130.5 27q104 0 166.5 -57.5t62.5 -157.5q0 -118 -71 -189.5t-221 -129.5l-191 -68l-31 -174q-6 -37 -6 -53q0 -52 26.5 -72t82.5 -20q101 0 278 92l23 -90 q-169 -98 -307 -98q-139 0 -189 102q-99 -102 -262 -102q-118 0 -189 64t-71 179zM154 221q0 -76 41 -110.5t127 -34.5q199 0 237 213l70 395q6 38 6 66q0 84 -45.5 117.5t-124.5 33.5q-46 0 -82.5 -10t-68 -34t-53 -67t-32.5 -104l-69 -397q-6 -35 -6 -68zM707 500 q116 38 165 57q102 37 147.5 85t45.5 132q0 129 -125 129q-81 0 -130 -50t-69 -157z" />
<glyph unicode="&#x178;" horiz-adv-x="753" d="M172 1364h113l118 -666l353 666h123l-437 -784l-102 -580h-111l103 584zM350 1520l27 145h106l-26 -145h-107zM621 1520l26 145h107l-27 -145h-106z" />
<glyph unicode="&#x2c6;" horiz-adv-x="815" d="M293 1194q10 8 84.5 66.5t124.5 101.5q30 -34 80.5 -89t74.5 -83l-55 -60q-76 73 -115 117q-40 -33 -153 -117z" />
<glyph unicode="&#x2dc;" horiz-adv-x="878" d="M287 1233q49 60 74.5 79t64.5 19q28 0 49 -8.5t53 -30.5q45 -32 68 -32q19 0 32.5 9.5t43.5 41.5l49 -47q-44 -55 -73.5 -75t-63.5 -20q-45 0 -92 35q-8 6 -19 14.5t-17 13t-14.5 8t-17.5 3.5q-22 0 -35 -10t-51 -49z" />
<glyph unicode="&#x2000;" horiz-adv-x="850" />
<glyph unicode="&#x2001;" horiz-adv-x="1700" />
<glyph unicode="&#x2002;" horiz-adv-x="850" />
<glyph unicode="&#x2003;" horiz-adv-x="1700" />
<glyph unicode="&#x2004;" horiz-adv-x="566" />
<glyph unicode="&#x2005;" horiz-adv-x="425" />
<glyph unicode="&#x2006;" horiz-adv-x="283" />
<glyph unicode="&#x2007;" horiz-adv-x="283" />
<glyph unicode="&#x2008;" horiz-adv-x="212" />
<glyph unicode="&#x2009;" horiz-adv-x="340" />
<glyph unicode="&#x200a;" horiz-adv-x="94" />
<glyph unicode="&#x2010;" horiz-adv-x="641" d="M137 616l17 97h397l-16 -97h-398z" />
<glyph unicode="&#x2011;" horiz-adv-x="641" d="M137 616l17 97h397l-16 -97h-398z" />
<glyph unicode="&#x2012;" horiz-adv-x="641" d="M137 616l17 97h397l-16 -97h-398z" />
<glyph unicode="&#x2013;" horiz-adv-x="942" d="M137 616l17 97h698l-16 -97h-699z" />
<glyph unicode="&#x2014;" horiz-adv-x="1296" d="M137 616l17 97h1052l-16 -97h-1053z" />
<glyph unicode="&#x2018;" horiz-adv-x="348" d="M190 920l33 190l146 274l45 -22l-123 -252h43l-33 -190h-111z" />
<glyph unicode="&#x2019;" horiz-adv-x="327" d="M150 922l122 252h-43l33 190h111l-33 -190l-145 -275z" />
<glyph unicode="&#x201a;" horiz-adv-x="358" d="M-47 -252l123 252h-43l33 190h110l-33 -190l-145 -274z" />
<glyph unicode="&#x201c;" horiz-adv-x="620" d="M184 920l33 190l145 274l46 -22l-123 -252h43l-33 -190h-111zM463 920l33 190l145 274l45 -22l-123 -252h43l-33 -190h-110z" />
<glyph unicode="&#x201d;" horiz-adv-x="606" d="M150 922l122 252h-43l33 190h111l-33 -190l-145 -275zM428 922l123 252h-43l33 190h110l-33 -190l-145 -275z" />
<glyph unicode="&#x201e;" horiz-adv-x="636" d="M-47 -252l123 252h-43l33 190h110l-33 -190l-145 -274zM231 -252l123 252h-43l33 190h111l-33 -190l-146 -274z" />
<glyph unicode="&#x2022;" horiz-adv-x="780" d="M162 621q0 139 79 213.5t210 74.5q101 0 158 -55t57 -152q0 -126 -74.5 -206t-214.5 -80q-96 0 -155.5 57t-59.5 148z" />
<glyph unicode="&#x2026;" horiz-adv-x="1062" d="M31 0l28 172h111l-29 -172h-110zM385 0l29 172h110l-28 -172h-111zM739 0l29 172h111l-29 -172h-111z" />
<glyph unicode="&#x202f;" horiz-adv-x="340" />
<glyph unicode="&#x2039;" horiz-adv-x="600" d="M135 532l303 426l76 -55l-272 -371l143 -372l-90 -37z" />
<glyph unicode="&#x203a;" horiz-adv-x="600" d="M90 178l272 371l-143 373l90 36l160 -409l-303 -426z" />
<glyph unicode="&#x205f;" horiz-adv-x="425" />
<glyph unicode="&#x20ac;" horiz-adv-x="870" d="M94 481l17 90h133l39 228h-136l17 90h135l27 145q34 196 122 275.5t252 79.5q106 0 195 -27l-18 -94q-72 22 -177 22q-126 0 -181.5 -55.5t-82.5 -200.5l-26 -145h378l-16 -90h-379l-39 -228h381l-16 -90h-381l-25 -145q-10 -62 -10 -98q0 -92 48.5 -128t154.5 -36 q87 0 186 22l2 -96q-95 -25 -205 -25q-149 0 -222.5 61.5t-73.5 192.5q0 52 10 107l24 145h-133z" />
<glyph unicode="&#x2122;" horiz-adv-x="970" d="M180 1309v55h303v-55h-121v-351h-61v351h-121zM553 958l14 406h72l119 -305l119 305h71l15 -406h-64l-6 293l-94 -241h-82l-94 241l-7 -293h-63z" />
<glyph unicode="&#xe000;" horiz-adv-x="983" d="M0 0v983h983v-983h-983z" />
</font>
</defs>
</svg>
