<?xml version="1.0" standalone="no"?>
<!DOCTYPE svg PUBLIC "-//W3C//DTD SVG 1.1//EN" "http://www.w3.org/Graphics/SVG/1.1/DTD/svg11.dtd" >
<svg xmlns="http://www.w3.org/2000/svg">
<metadata>
This is a custom SVG webfont generated by Font Squirrel.
Copyright   : Copyright 2006 Process Type Foundry All rights reserved
Designer    : Eric Olson
Foundry     : Eric Olson
Foundry URL : httpwwwprocesstypefoundrycom
</metadata>
<defs>
<font id="KlavikaCHLight" horiz-adv-x="1067" >
<font-face units-per-em="2048" ascent="1536" descent="-512" />
<missing-glyph horiz-adv-x="450" />
<glyph unicode=" "  horiz-adv-x="450" />
<glyph unicode="&#x09;" horiz-adv-x="450" />
<glyph unicode="&#xa0;" horiz-adv-x="450" />
<glyph unicode="!" horiz-adv-x="516" d="M195 0v176h127v-176h-127zM199 694v711h118v-711l-24 -344h-70z" />
<glyph unicode="&#x22;" horiz-adv-x="724" d="M154 905v500h104v-500h-104zM467 905v500h104v-500h-104z" />
<glyph unicode="#" horiz-adv-x="1472" d="M123 367l6 100h279l20 420h-278l6 100h278l19 336h108l-18 -336h399l19 336h108l-18 -336h278l-6 -100h-279l-20 -420h279l-7 -100h-278l-19 -367h-108l18 367h-399l-18 -367h-109l18 367h-278zM516 467h399l21 420h-399z" />
<glyph unicode="$" horiz-adv-x="1046" d="M143 41l21 96q170 -51 348 -51q94 0 148.5 11.5t82 43t34.5 69.5t7 112q0 55 -1 79.5t-10 57.5t-24.5 46t-50 34.5t-80 38t-120.5 40.5q-133 43 -199 72t-102.5 76t-41.5 91t-5 147q0 180 70.5 254.5t277.5 82.5v205h114v-205q172 -6 277 -34l-15 -101q-172 31 -323 31 q-182 0 -232.5 -39t-50.5 -199q0 -139 28 -173.5t177 -86.5l174 -62q63 -24 117.5 -53.5t78 -51t40 -63.5t18.5 -79t2 -106q0 -184 -69.5 -259t-262.5 -83v-205h-114v205q-179 6 -314 59z" />
<glyph unicode="%" horiz-adv-x="1726" d="M113 909v205q0 270 293 270q291 0 290 -270v-205q0 -270 -290 -270q-293 0 -293 270zM215 907q0 -88 44 -133t146.5 -45t145.5 44t43 134v209q0 90 -43 134t-145.5 44t-146.5 -45t-44 -133v-209zM537 14l559 1370l90 -36l-559 -1368zM1020 250v205q0 270 293 270 q291 0 291 -270v-205q0 -270 -291 -270q-293 0 -293 270zM1122 248q0 -88 44 -133t146.5 -45t145.5 44t43 134v209q0 90 -43 134t-145.5 44t-146.5 -45t-44 -133v-209z" />
<glyph unicode="&#x26;" horiz-adv-x="1382" d="M133 258v70q0 63 37 122.5t83 99.5t116 91q18 12 26 18l43 31l-94 92q-57 57 -81.5 88t-46 77t-21.5 102v47q0 131 95 209.5t252.5 78.5t248 -73.5t90.5 -206.5v-51q-2 -162 -181 -293l-100 -74l320 -309l200 311l94 -59q-63 -100 -219 -326l316 -303h-162l-219 213 q-180 -233 -447 -233q-172 0 -261 73.5t-89 204.5zM250 254q0 -176 244 -176q119 0 199.5 51t160.5 158l-342 331l-39 -28l-57 -42l-55.5 -41t-41 -36t-37 -42t-20.5 -44t-12 -57v-74zM309 1049q0 -39 16.5 -74t33 -53.5t49.5 -49.5l118 -116l107 78q135 100 135 215v53 q0 84 -59.5 134t-167.5 50q-117 0 -174.5 -54t-57.5 -134v-49z" />
<glyph unicode="'" horiz-adv-x="411" d="M154 905v500h104v-500h-104z" />
<glyph unicode="(" horiz-adv-x="616" d="M154 622.5q0 487.5 315 938.5l86 -60q-160 -254 -221.5 -451.5t-61.5 -427t61.5 -427t221.5 -451.5l-86 -59q-315 450 -315 937.5z" />
<glyph unicode=")" horiz-adv-x="616" d="M61 -256q160 254 221.5 451.5t61.5 427t-61.5 427t-221.5 451.5l86 60q315 -451 315.5 -938.5t-315.5 -937.5z" />
<glyph unicode="*" horiz-adv-x="976" d="M113 1053v75h307l-168 258l63 41l172 -266l172 266l64 -41l-168 -258h309v-75h-307l168 -256l-63 -41l-175 268l-174 -268l-63 41l166 256h-303z" />
<glyph unicode="+" horiz-adv-x="1097" d="M133 444v107h359v364h114v-364h359v-107h-359v-364h-114v364h-359z" />
<glyph unicode="," horiz-adv-x="493" d="M154 -197l73 197h-45v176h127v-176l-98 -221z" />
<glyph unicode="-" horiz-adv-x="741" d="M133 524v101h475v-101h-475z" />
<glyph unicode="." horiz-adv-x="495" d="M184 0v176h127v-176h-127z" />
<glyph unicode="/" horiz-adv-x="901" d="M133 -240l504 1624h121l-506 -1624h-119z" />
<glyph unicode="0" horiz-adv-x="1146" d="M164 330v663q0 350 409.5 350t409.5 -350v-663q0 -350 -409.5 -350t-409.5 350zM283 338q0 -131 64.5 -191.5t226 -60.5t226 60.5t64.5 191.5v647q0 131 -64.5 191.5t-226 60.5t-226 -60.5t-64.5 -191.5v-647z" />
<glyph unicode="1" horiz-adv-x="667" d="M20 1124l347 199h106v-1323h-119v1182l-276 -156z" />
<glyph unicode="2" horiz-adv-x="991" d="M109 0v106l374 469q135 174 180.5 252t45.5 160v33q0 125 -51.5 171t-225.5 46q-139 0 -289 -47l-22 102q150 51 323 51q225 0 304 -76.5t79 -242.5v-31q0 -104 -46 -189t-203 -296q-55 -74 -318 -402h578v-106h-729z" />
<glyph unicode="3" horiz-adv-x="1005" d="M113 20l18 103q158 -37 295 -37q162 0 229.5 43t67.5 160v131q0 193 -231 192h-275v107h262q219 0 219 186v146q0 102 -55 144t-190.5 42t-296.5 -31l-17 103q158 35 310 34q195 0 281.5 -70.5t86.5 -213.5v-144q0 -98 -36 -155.5t-128 -91.5q188 -41 189 -240v-147 q0 -160 -102.5 -230.5t-317.5 -70.5q-164 -1 -309 40z" />
<glyph unicode="4" horiz-adv-x="1105" d="M61 356v127l601 840h159v-864h203v-103h-203v-356h-119v356h-641zM176 459h526v741z" />
<glyph unicode="5" horiz-adv-x="1013" d="M133 25l21 98q139 -37 313 -37q162 0 223.5 51t61.5 180v89q0 121 -49.5 171t-186.5 52q-55 0 -167.5 1t-164.5 3v690h676v-106h-557v-478q47 -2 120 -3t116 -1q332 -6 331 -313v-113q0 -166 -91 -247.5t-312 -81.5q-205 0 -334 45z" />
<glyph unicode="6" horiz-adv-x="1060" d="M164 305v578q0 252 106.5 356t393.5 104q135 0 233 -28l-14 -101q-98 23 -199 23q-250 0 -325.5 -72.5t-75.5 -283.5v-197q131 53 292 53q197 0 275 -78.5t78 -240.5v-113q0 -162 -87 -243.5t-290 -81.5t-295 82.5t-92 242.5zM283 301q0 -119 67.5 -167t200.5 -48 q143 0 200.5 49t57.5 166v123q0 113 -49 160t-189 47q-141 0 -288 -62v-268z" />
<glyph unicode="7" horiz-adv-x="874" d="M61 1217v106h766v-100l-573 -1223h-121l574 1217h-646z" />
<glyph unicode="8" horiz-adv-x="1134" d="M154 295v41q0 119 60 195.5t212 144.5q-133 61 -185.5 140t-52.5 181v27q0 319 379 319t379 -319v-27q0 -113 -51 -186.5t-190 -134.5q154 -68 215 -144.5t61 -195.5v-41q0 -164 -98.5 -239.5t-315.5 -75.5t-315 75.5t-98 239.5zM272 301q0 -121 65.5 -168t229.5 -47 t229.5 47t65.5 168v41q0 98 -58.5 150.5t-236.5 125.5q-176 -70 -235.5 -123t-59.5 -153v-41zM307 989q0 -90 53.5 -142t206.5 -118q154 68 207 118t53 142v51q0 98 -58 147.5t-201.5 49.5t-202 -49t-58.5 -148v-51z" />
<glyph unicode="9" horiz-adv-x="1050" d="M123 905v113q0 160 89 242.5t288 82.5q205 0 296 -80.5t91 -244.5v-578q0 -254 -104.5 -357t-395.5 -103q-129 0 -233 30l14 101q106 -25 199 -25q133 0 210.5 16.5t120.5 61.5t56.5 106.5t13.5 171.5v197q-131 -53 -293 -53q-197 0 -274.5 78.5t-77.5 240.5zM242 899 q0 -113 49 -160t188 -47q141 0 289 62v268q0 119 -67.5 167t-200.5 48q-143 0 -200.5 -49t-57.5 -166v-123z" />
<glyph unicode=":" horiz-adv-x="495" d="M184 0v176h127v-176h-127zM184 655v176h127v-176h-127z" />
<glyph unicode=";" horiz-adv-x="493" d="M154 -197l73 197h-45v176h127v-176l-98 -221zM182 655v176h127v-176h-127z" />
<glyph unicode="&#x3c;" horiz-adv-x="1126" d="M102 457v86l816 475l51 -86l-748 -432l752 -434l-51 -86z" />
<glyph unicode="=" horiz-adv-x="1042" d="M164 281v96h715v-96h-715zM164 633v96h715v-96h-715z" />
<glyph unicode="&#x3e;" horiz-adv-x="1126" d="M154 66l751 434l-747 432l51 86l815 -475v-86l-819 -477z" />
<glyph unicode="?" horiz-adv-x="937" d="M123 1391q145 35 299 34q227 0 300 -78.5t73 -281.5q0 -180 -32 -248.5t-165 -173.5l-213 -170l-70 90l224 178q98 82 117.5 129.5t19.5 190.5q0 84 -7 128t-34 76.5t-77 43t-140 10.5q-131 0 -275 -31zM315 0v197h127v-197h-127z" />
<glyph unicode="@" horiz-adv-x="1538" d="M133 682q0 307 187.5 504.5t467.5 197.5q295 0 456 -155.5t161 -407.5q0 -184 -92 -294.5t-266 -110.5q-104 0 -162 63q-115 -57 -213 -57q-86 0 -121 47t-23 125l39 229q16 100 67.5 142.5t164.5 42.5q133 0 241 -52l-75 -434q37 -18 82 -18q131 0 193.5 87t62.5 226 q0 225 -136.5 349t-378.5 124q-233 0 -391.5 -169t-158.5 -439q0 -279 157.5 -442.5t464.5 -163.5q197 0 397 88l31 -82q-186 -102 -428 -102q-338 0 -532.5 190t-194.5 512zM623 588q-8 -45 7 -61.5t66 -16.5q90 0 178 61l58 326q-84 23 -146 23q-59 0 -85.5 -21.5 t-36.5 -75.5q-6 -41 -20.5 -118.5t-20.5 -116.5z" />
<glyph unicode="A" horiz-adv-x="1271" d="M72 0l475 1364h178l475 -1364h-119l-129 358h-635l-127 -358h-118zM354 463h561l-280 831z" />
<glyph unicode="B" horiz-adv-x="1144" d="M184 0v1364h512q141 0 217 -67.5t76 -200.5v-164q0 -164 -155 -221q84 -12 141 -79t57 -175v-178q0 -135 -87 -207t-226 -72h-535zM305 106h416q190 0 190 173v174q0 90 -55 141t-170 51h-381v-539zM305 752h352q106 0 158.5 50t52.5 136v174q0 145 -170 145h-393v-505z " />
<glyph unicode="C" horiz-adv-x="1046" d="M154 375v614q0 197 106.5 296t345.5 99q174 0 328 -30l-14 -105q-150 27 -304 27q-186 0 -264 -64.5t-78 -224.5v-610q0 -160 78 -224.5t264 -64.5q154 0 304 27l14 -105q-154 -31 -328 -30q-240 0 -346 99t-106 296z" />
<glyph unicode="D" horiz-adv-x="1208" d="M184 0v1364h451q233 0 329.5 -106.5t96.5 -296.5v-558q0 -190 -96.5 -296.5t-329.5 -106.5h-451zM305 109h332q168 0 235.5 68.5t67.5 219.5v570q0 152 -67.5 220t-235.5 68h-332v-1146z" />
<glyph unicode="E" horiz-adv-x="1097" d="M184 0v1364h768v-109h-647v-505h602v-109h-602v-532h649v-109h-770z" />
<glyph unicode="F" horiz-adv-x="1046" d="M184 0v1364h777v-109h-656v-526h610v-108h-610v-621h-121z" />
<glyph unicode="G" horiz-adv-x="1169" d="M154 377v610q0 199 105.5 298t346.5 99q207 0 375 -36l-12 -105q-205 33 -361 33q-188 0 -261 -65.5t-73 -225.5v-606q0 -156 69 -223.5t255 -67.5q160 0 287 31v483h121v-565q-197 -57 -416 -57q-240 0 -338 98t-98 299z" />
<glyph unicode="H" horiz-adv-x="1269" d="M184 0v1364h121v-608h660v608h120v-1364h-120v647h-660v-647h-121z" />
<glyph unicode="I" horiz-adv-x="509" d="M195 0v1364h120v-1364h-120z" />
<glyph unicode="J" horiz-adv-x="479" d="M-20 -309q150 147 177 189t27 120v1364h121v-1352q0 -125 -33.5 -179t-212.5 -228z" />
<glyph unicode="K" horiz-adv-x="1165" d="M184 0v1364h121v-1364h-121zM352 694l543 670h149l-546 -670l585 -694h-151z" />
<glyph unicode="L" horiz-adv-x="1011" d="M184 0v1364h121v-1255h615v-109h-736z" />
<glyph unicode="M" horiz-adv-x="1667" d="M184 0v1364h168l482 -1280l481 1280h168v-1364h-115v1206l-453 -1206h-163l-453 1206v-1206h-115z" />
<glyph unicode="N" horiz-adv-x="1306" d="M184 0v1364h176l648 -1247v1247h114v-1364h-176l-647 1245v-1245h-115z" />
<glyph unicode="O" horiz-adv-x="1261" d="M154 385v594q0 188 113.5 296.5t363.5 108.5t363.5 -108.5t113.5 -296.5v-594q0 -188 -113.5 -296.5t-363.5 -108.5t-363.5 108.5t-113.5 296.5zM274 389q0 -152 83 -226.5t273.5 -74.5t273.5 75t83 226v586q0 152 -83 226.5t-273.5 74.5t-273.5 -75t-83 -226v-586z" />
<glyph unicode="P" horiz-adv-x="1114" d="M184 0v1364h463q375 0 375 -315v-213q0 -315 -375 -316h-342v-520h-121zM305 629h344q131 0 191.5 48t60.5 159v213q0 111 -60.5 158.5t-191.5 47.5h-344v-626z" />
<glyph unicode="Q" horiz-adv-x="1261" d="M154 385v594q0 188 113.5 296.5t363.5 108.5t363.5 -108.5t113.5 -296.5v-594q0 -346 -356 -397l118 -273l-110 -47l-135 312q-471 2 -471 405zM274 389q0 -152 83 -226.5t273.5 -74.5t273.5 75t83 226v586q0 152 -83 226.5t-273.5 74.5t-273.5 -75t-83 -226v-586z" />
<glyph unicode="R" horiz-adv-x="1267" d="M184 0v1364h484q375 0 374 -315v-209q0 -246 -221 -299l365 -541h-137l-355 524h-26h-363v-524h-121zM305 633h365q131 0 191.5 48t60.5 159v209q0 111 -60.5 158.5t-191.5 47.5h-365v-622z" />
<glyph unicode="S" horiz-adv-x="1114" d="M154 45l22 98q184 -55 367 -55q170 0 233.5 54.5t63.5 189.5q0 63 -1 91t-11.5 64.5t-26 50t-54 34t-85 32.5t-127.5 31q-129 29 -198 55.5t-109 75.5t-50 107.5t-10 170.5q0 178 90 259t334 81q188 0 352 -47l-14 -102q-182 41 -334 41q-133 0 -199.5 -25.5t-87 -71.5 t-20.5 -139q0 -94 3 -132t38 -74.5t83 -51t169 -45.5q94 -25 153.5 -43t104.5 -43.5t66.5 -48t34.5 -66.5t16.5 -84t3.5 -114q0 -182 -89.5 -270t-332.5 -88q-215 -1 -385 65z" />
<glyph unicode="T" horiz-adv-x="1062" d="M51 1255v109h961v-109h-420v-1255h-121v1255h-420z" />
<glyph unicode="U" horiz-adv-x="1290" d="M174 387v977h121v-977q0 -143 90 -221t260 -78t260 78t90 221v977h121v-977q0 -184 -116.5 -295.5t-354 -111.5t-354.5 111.5t-117 295.5z" />
<glyph unicode="V" horiz-adv-x="1208" d="M41 1364h119l444 -1255l445 1255h118l-481 -1364h-164z" />
<glyph unicode="W" horiz-adv-x="1822" d="M51 1364h117l342 -1272l305 1272h193l305 -1272l342 1272h117l-369 -1364h-189l-303 1278l-303 -1278h-188z" />
<glyph unicode="X" horiz-adv-x="1187" d="M72 0l456 692l-442 672h131l377 -576l377 576h131l-443 -672l457 -692h-131l-391 596l-391 -596h-131z" />
<glyph unicode="Y" horiz-adv-x="1112" d="M31 1364h125l399 -823l401 823h125l-465 -944v-420h-120v420z" />
<glyph unicode="Z" horiz-adv-x="1179" d="M143 0v109l744 1146h-723v109h858v-109l-746 -1146h760v-109h-893z" />
<glyph unicode="[" horiz-adv-x="636" d="M205 -258v1876h370v-111h-251v-1654h251v-111h-370z" />
<glyph unicode="\" horiz-adv-x="901" d="M143 1384h121l504 -1624h-119z" />
<glyph unicode="]" horiz-adv-x="636" d="M61 -147h252v1654h-252v111h371v-1876h-371v111z" />
<glyph unicode="^" horiz-adv-x="929" d="M102 834l297 571h131l297 -571l-96 -54l-266 514l-266 -514z" />
<glyph unicode="_" horiz-adv-x="888" d="M8 -20h873v-54h-873v54z" />
<glyph unicode="`" horiz-adv-x="634" d="M154 1288l59 90q106 -76 268 -176l-55 -84q-166 92 -272 170z" />
<glyph unicode="a" horiz-adv-x="993" d="M133 258q0 154 69.5 215.5t223.5 61.5h295v194q0 100 -55.5 141t-180.5 41q-131 0 -295 -32l-18 100q137 39 307 39q188 0 274.5 -73t86.5 -216v-729h-103l-8 78q-160 -98 -338 -98q-258 -1 -258 278zM252 256q0 -94 31.5 -132t132.5 -38q160 0 305 102v240h-291 q-102 0 -140 -37t-38 -135z" />
<glyph unicode="b" horiz-adv-x="1040" d="M174 16v1389l119 16v-479q143 76 328 76q145 0 215.5 -77t70.5 -214v-395q0 -176 -91 -264t-308 -88q-182 -1 -334 36zM293 109q111 -20 229 -21q152 0 209 59.5t57 180.5v401q0 90 -43 132t-141 42q-160 0 -311 -86v-708z" />
<glyph unicode="c" horiz-adv-x="819" d="M113 324v350q0 170 87 257t289 87q119 0 228 -29l-15 -98q-121 20 -213 20q-141 0 -199.5 -51t-58.5 -182v-359q0 -131 58.5 -182t199.5 -51q92 0 213 20l15 -98q-109 -29 -228 -28q-203 0 -289.5 87t-86.5 257z" />
<glyph unicode="d" horiz-adv-x="1050" d="M143 256v455q0 307 308 307q141 0 307 -33v420l119 16v-1421h-109l-6 94q-152 -115 -336 -114q-283 0 -283 276zM262 256q0 -90 37 -130t135 -40q166 0 324 127v664q-168 35 -312 34q-96 0 -140 -49t-44 -151v-455z" />
<glyph unicode="e" horiz-adv-x="980" d="M123 342v313q0 362 373 363q362 0 362 -363v-192h-616v-125q0 -137 57 -195.5t203 -58.5q141 0 315 47l21 -96q-156 -55 -344 -55q-201 0 -286 94t-85 268zM242 569h499v90q0 131 -55 193.5t-190.5 62.5t-194.5 -63.5t-59 -192.5v-90z" />
<glyph unicode="f" horiz-adv-x="731" d="M72 895v102h186v209q0 119 68.5 179.5t189.5 60.5q113 0 205 -29l-16 -92q-98 18 -181 18q-84 0 -115.5 -34.5t-31.5 -116.5v-195h307l-12 -102h-295v-895h-119v895h-186z" />
<glyph unicode="g" horiz-adv-x="1050" d="M133 655v13q0 176 89 263t294 87q100 0 168 -21h274v-86l-124 -10q66 -84 65 -233v-13q0 -350 -383 -350q-72 0 -133 12q-78 -63 -78 -131q0 -63 90 -71l287 -23q133 -10 190.5 -69.5t57.5 -167.5q0 -156 -92.5 -217.5t-333.5 -61.5q-180 0 -350 49l18 94 q178 -41 336 -41q190 0 247.5 38t57.5 132q0 74 -36 107t-124 39q-190 12 -270 18q-197 16 -197 176q0 98 95 168q-148 84 -148 299zM248 651q0 -137 63.5 -190t204.5 -53q139 0 203.5 55t64.5 188v21q0 135 -59 189t-208.5 54t-209 -53t-59.5 -190v-21z" />
<glyph unicode="h" d="M174 0v1405l119 16v-512q225 109 399 109q211 0 211 -225v-793h-119v807q0 100 -108 100q-63 0 -178 -33.5t-205 -80.5v-793h-119z" />
<glyph unicode="i" horiz-adv-x="466" d="M174 0v997h119v-997h-119zM174 1186v219h119v-219h-119z" />
<glyph unicode="j" horiz-adv-x="456" d="M-16 -338q135 121 162.5 160t27.5 125v1050h119v-1069q0 -106 -34 -155t-198 -197zM174 1186v219h119v-219h-119z" />
<glyph unicode="k" horiz-adv-x="964" d="M174 0v1405l119 16v-1421h-119zM346 506l393 491h148l-398 -491l414 -506h-151z" />
<glyph unicode="l" horiz-adv-x="466" d="M174 0v1405l119 16v-1421h-119z" />
<glyph unicode="m" horiz-adv-x="1677" d="M174 0v997h105l8 -90q90 43 205.5 77t199.5 34q150 0 193 -111q94 43 214 77t204 34q211 0 210 -225v-793h-118v807q0 100 -109 100q-70 0 -179.5 -32.5t-203.5 -81.5v-793h-119v807q0 100 -108 100q-63 0 -178 -33.5t-205 -80.5v-793h-119z" />
<glyph unicode="n" d="M174 0v997h105l8 -90q90 43 205.5 77t199.5 34q211 0 211 -225v-793h-119v807q0 100 -108 100q-63 0 -178 -33.5t-205 -80.5v-793h-119z" />
<glyph unicode="o" horiz-adv-x="1019" d="M123 342v313q0 166 94 264.5t293 98.5t293 -98.5t94 -264.5v-313q0 -166 -94 -264t-293 -98t-293 98t-94 264zM242 338q0 -127 64.5 -189.5t203.5 -62.5t203.5 62.5t64.5 189.5v321q0 127 -64.5 189.5t-203.5 62.5t-203.5 -62.5t-64.5 -189.5v-321z" />
<glyph unicode="p" horiz-adv-x="1046" d="M174 -420v1417h109l6 -94q152 115 336 115q283 0 282 -277v-454q0 -307 -307 -307q-141 0 -307 32v-415zM293 121q168 -35 311 -35q96 0 140 49t44 152v454q0 90 -36.5 130t-135.5 40q-166 0 -323 -127v-663z" />
<glyph unicode="q" horiz-adv-x="1040" d="M133 270v396q0 176 91 264t308 88q182 0 334 -37v-1384l-118 -17v475q-143 -76 -328 -75q-145 0 -216 76.5t-71 213.5zM252 268q0 -90 43 -132t141 -42q160 0 312 86v709q-111 20 -230 20q-152 0 -209 -59t-57 -180v-402z" />
<glyph unicode="r" horiz-adv-x="638" d="M174 0v997h107l6 -151q205 135 307 172l14 -117q-104 -45 -315 -184v-717h-119z" />
<glyph unicode="s" horiz-adv-x="890" d="M143 31l21 96q133 -41 264 -41q135 0 178 33t43 129q0 61 -3 86.5t-28.5 51.5t-66.5 38t-133 35q-125 29 -182.5 66.5t-73 87t-15.5 149.5q0 129 74 192.5t252 63.5q162 0 283 -35l-13 -100q-139 29 -278 28q-125 0 -162 -32.5t-37 -120.5q0 -104 28 -134t165 -65 q113 -29 172 -51.5t91 -61t39 -76.5t7 -118q0 -143 -70.5 -207.5t-261.5 -64.5q-170 0 -293 51z" />
<glyph unicode="t" horiz-adv-x="759" d="M61 895v102h193v236l119 16v-252h305l-12 -102h-293v-688q0 -72 21.5 -98.5t92.5 -26.5q86 0 179 29l22 -93q-98 -39 -209 -38q-119 0 -172 49t-53 166v700h-193z" />
<glyph unicode="u" d="M164 205v792h119v-807q0 -100 108 -100q63 0 178 34t205 81v792h119v-997h-105l-8 90q-90 -43 -205.5 -76.5t-199.5 -33.5q-211 0 -211 225z" />
<glyph unicode="v" horiz-adv-x="919" d="M31 997h121l307 -913l309 913h121l-338 -997h-182z" />
<glyph unicode="w" horiz-adv-x="1437" d="M51 997h113l205 -917l270 917h160l268 -917l207 917h112l-227 -997h-178l-262 911l-262 -911h-178z" />
<glyph unicode="x" horiz-adv-x="903" d="M51 0l336 502l-330 495h127l267 -399l268 399h127l-332 -495l338 -502h-129l-272 408l-271 -408h-129z" />
<glyph unicode="y" horiz-adv-x="909" d="M31 997h121l307 -913l309 913h121l-338 -997l-148 -403h-116l149 403h-67z" />
<glyph unicode="z" horiz-adv-x="894" d="M113 0v96l538 805h-524l2 96h647l-2 -96l-536 -805h555v-96h-680z" />
<glyph unicode="{" horiz-adv-x="632" d="M123 610v107h33q49 0 69.5 19.5t20.5 64.5v614q0 203 205 203h141v-107h-150q-78 0 -77 -81v-623q0 -141 -129 -143q129 -6 129 -144v-622q0 -82 77 -82h150v-107h-141q-205 0 -205 203v614q0 45 -20.5 64.5t-69.5 19.5h-33z" />
<glyph unicode="|" horiz-adv-x="509" d="M215 -430v2048h80v-2048h-80z" />
<glyph unicode="}" horiz-adv-x="632" d="M41 -184h149q78 0 78 82v622q0 137 129 144q-129 2 -129 143v623q0 82 -78 81h-149v107h141q205 0 205 -203v-614q0 -45 20.5 -64.5t69.5 -19.5h33v-107h-33q-49 0 -69.5 -19.5t-20.5 -64.5v-614q0 -203 -205 -203h-141v107z" />
<glyph unicode="~" horiz-adv-x="1013" d="M102 459q90 231 252 231q80 0 180.5 -82t153.5 -82q43 0 76 29t46 57.5l38 87.5l84 -36q-35 -104 -92.5 -169t-155.5 -65q-63 0 -123.5 40t-113 80t-97.5 40q-57 0 -90 -39t-72 -131z" />
<glyph unicode="&#xa1;" horiz-adv-x="516" d="M195 821v176h127v-176h-127zM199 303l24 344h70l24 -344v-706h-118v706z" />
<glyph unicode="&#xa2;" horiz-adv-x="860" d="M123 508v350q0 156 72.5 243t240.5 99v186h115v-186q104 -8 176 -26l-14 -99q-121 20 -213 21q-141 0 -199.5 -51.5t-58.5 -182.5v-358q0 -131 58 -182.5t200 -51.5q92 0 213 21l14 -98q-82 -23 -176 -29v-184h-115v186q-168 12 -240.5 99t-72.5 243z" />
<glyph unicode="&#xa3;" horiz-adv-x="1116" d="M164 629v102h190q-100 158 -100 313q0 158 84 228.5t289 70.5q154 0 299 -40l-19 -103q-137 37 -276 37q-154 0 -206 -40t-52 -157q0 -137 110 -309h408l-8 -102h-357q23 -45 23 -119q0 -197 -195 -404h609v-106h-766v106q104 84 168.5 193t64.5 209q0 63 -27 121h-239z " />
<glyph unicode="&#xa4;" horiz-adv-x="1105" d="M154 252l127 127q-41 61 -41 160v295q0 96 41 157l-127 129l77 78l134 -135q70 37 188 37q109 0 186 -37l135 135l78 -78l-129 -129q41 -61 41 -157v-295q0 -96 -41 -158l129 -129l-78 -78l-135 135q-72 -37 -186.5 -37t-187.5 35l-134 -133zM350 565q0 -102 40 -146 t163 -44q121 0 161 44t40 146v242q0 102 -40 146t-161 44q-123 0 -163 -44t-40 -146v-242z" />
<glyph unicode="&#xa5;" horiz-adv-x="1112" d="M51 1323h125l379 -782l381 782h125l-293 -594h207v-96h-254l-105 -213v-43h359v-92h-359v-285h-120v285h-359v92h359v43l-105 213h-254v96h207z" />
<glyph unicode="&#xa6;" horiz-adv-x="509" d="M215 424h80v-854h-80v854zM215 764v854h80v-854h-80z" />
<glyph unicode="&#xa7;" horiz-adv-x="1146" d="M143 1159q0 121 63.5 173t194.5 52q154 0 301 -49l-18 -92q-166 39 -274 39q-92 0 -120 -25.5t-28 -105.5q0 -139 43 -345t88 -356.5t131 -416.5l-106 -33q-131 387 -203 666.5t-72 492.5zM455 -332l18 92q166 -39 275 -39q92 0 119.5 26t27.5 106q0 139 -43 344.5 t-88 356.5t-131 417l106 33q131 -387 203 -667t72 -493q0 -121 -62.5 -173t-195.5 -52q-154 0 -301 49z" />
<glyph unicode="&#xa8;" horiz-adv-x="802" d="M164 1143v135h127v-135h-127zM512 1143v135h127v-135h-127z" />
<glyph unicode="&#xa9;" horiz-adv-x="1691" d="M143 682q0 299 196 501.5t507 202.5t506.5 -202.5t195.5 -501.5q0 -297 -195.5 -499.5t-506.5 -202.5t-507 202.5t-196 499.5zM242 682q0 -262 164.5 -437t439 -175t439.5 175t165 437t-165 438t-439.5 176t-439 -176t-164.5 -438zM604 535v294q0 109 56.5 159t189.5 50 q104 0 207 -24l-10 -80q-96 20 -191 20q-96 0 -129 -25.5t-33 -101.5v-290q0 -76 33 -101.5t129 -25.5q94 0 191 20l10 -80q-102 -25 -207 -24q-133 0 -189.5 50t-56.5 159z" />
<glyph unicode="&#xaa;" horiz-adv-x="774" d="M164 971q0 100 42 136t140 36h166v114q0 49 -28.5 70t-96.5 21q-90 0 -184 -23l-15 76q92 25 195 24q117 0 167 -39.5t50 -123.5v-455h-76l-6 41q-88 -53 -170 -53q-184 0 -184 176zM252 970.5q0 -57.5 23.5 -78t76.5 -20.5q84 0 160 56v135h-162q-59 0 -78.5 -17.5 t-19.5 -75z" />
<glyph unicode="&#xab;" horiz-adv-x="978" d="M113 500l262 395l90 -61l-221 -334l221 -334l-90 -62zM494 500l262 395l90 -61l-221 -334l221 -334l-90 -62z" />
<glyph unicode="&#xac;" horiz-adv-x="1159" d="M133 444v107h832v-471h-111v364h-721z" />
<glyph unicode="&#xad;" horiz-adv-x="741" d="M133 524v101h475v-101h-475z" />
<glyph unicode="&#xae;" horiz-adv-x="1026" d="M143 1054.5q0 157.5 101.5 264t269.5 106.5t268.5 -106.5t100.5 -264t-100.5 -264t-268.5 -106.5t-269.5 106.5t-101.5 264zM215 1055q0 -129 79 -215t220 -86t219 85t78 216t-78 217t-219 86t-220 -86t-79 -217zM403 893v340h132q102 0 102 -88v-51q0 -55 -49 -78 l92 -123h-59l-86 113h-82v-113h-50zM453 1051h82q53 0 53 43v51q0 25 -12.5 34t-40.5 9h-82v-137z" />
<glyph unicode="&#xaf;" horiz-adv-x="770" d="M143 1159v98h484v-98h-484z" />
<glyph unicode="&#xb0;" horiz-adv-x="733" d="M154 1128.5q0 92.5 57 153.5t155.5 61t156 -61t57.5 -153.5t-57.5 -153t-155.5 -60.5q-100 0 -156.5 60.5t-56.5 153zM227 1128.5q0 -61.5 37 -104.5t102.5 -43t102.5 43t37 104.5t-37 105.5t-102.5 44t-102.5 -44t-37 -105.5z" />
<glyph unicode="&#xb1;" horiz-adv-x="1159" d="M164 0v106h831v-106h-831zM164 608v107h358v364h115v-364h358v-107h-358v-364h-115v364h-358z" />
<glyph unicode="&#xb2;" horiz-adv-x="790" d="M154 498v82l208 264q68 88 99 139t36 71.5t5 59.5v27q0 63 -25.5 86.5t-118.5 23.5q-68 0 -186 -26l-16 86q94 33 206 32q242 0 242 -190v-53q0 -55 -26.5 -112.5t-112.5 -170.5l-174 -225h325v-94h-462z" />
<glyph unicode="&#xb3;" horiz-adv-x="765" d="M143 510l15 86q90 -25 186 -25q92 0 126 26t34 91v74q0 109 -129 108h-170v93h172q109 0 108 92v100q0 55 -31.5 76.5t-105.5 21.5q-86 0 -178 -18l-14 84q82 25 188 24q240 0 240 -184v-102q0 -94 -84 -139q102 -39 102 -154v-78q0 -109 -61.5 -157t-204.5 -48 q-91 0 -193 29z" />
<glyph unicode="&#xb4;" horiz-adv-x="634" d="M154 1202q162 100 268 176l59 -90q-106 -78 -272 -170z" />
<glyph unicode="&#xb5;" d="M164 -403v1400h119v-807q0 -100 108 -100q63 0 178 34t205 81v792h119v-997h-105l-8 90q-90 -43 -205.5 -76.5t-199.5 -33.5q-49 0 -92 14v-397h-119z" />
<glyph unicode="&#xb6;" horiz-adv-x="1028" d="M154 950q0 176 118.5 295t294.5 119v-825q-176 0 -294.5 117.5t-118.5 293.5zM526 -346q127 127 155 160.5t28 62.5v1487h114v-1483q0 -59 -31.5 -102t-195.5 -203z" />
<glyph unicode="&#xb7;" horiz-adv-x="495" d="M184 567v176h127v-176h-127z" />
<glyph unicode="&#xb8;" horiz-adv-x="641" d="M143 -395l19 71q66 -18 125 -18q117 0 116 72q0 63 -96 63q-61 0 -119 -12l48 219h86l-31 -143q29 6 57 6q66 0 108 -33t42 -96q0 -70 -51.5 -114t-143.5 -44q-78 0 -160 29z" />
<glyph unicode="&#xb9;" horiz-adv-x="673" d="M123 1194l223 129h82v-829h-102v710l-162 -86z" />
<glyph unicode="&#xba;" horiz-adv-x="802" d="M164 1018v186q0 100 57.5 160.5t179.5 60.5q227 0 238 -221v-186q0 -102 -57.5 -162.5t-180 -60.5t-180 60.5t-57.5 162.5zM252 1016q0 -143 149 -144q152 0 152 144v190q0 141 -152 142q-150 0 -149 -142v-190z" />
<glyph unicode="&#xbb;" horiz-adv-x="978" d="M133 176l221 334l-221 334l90 61l262 -395l-262 -395zM514 176l221 334l-221 334l90 61l262 -395l-262 -395z" />
<glyph unicode="&#xbc;" horiz-adv-x="1677" d="M123 1194l223 129h82v-829h-102v710l-162 -86zM457 -20l536 1396l84 -33l-534 -1396zM907 186v99l348 544h127v-553h121v-90h-121v-186h-98v186h-377zM1012 276h272v445z" />
<glyph unicode="&#xbd;" horiz-adv-x="1695" d="M123 1194l223 129h82v-829h-102v710l-162 -86zM457 -20l536 1396l84 -33l-534 -1396zM1059 0v82l209 264q68 88 98.5 139.5t35.5 72t5 58.5v27q0 63 -25.5 87t-117.5 24q-68 0 -187 -27l-16 86q94 33 207 33q242 0 241 -191v-53q0 -55 -26.5 -112.5t-112.5 -170.5 l-174 -225h326v-94h-463z" />
<glyph unicode="&#xbe;" horiz-adv-x="1738" d="M143 510l15 86q90 -25 186 -25q92 0 126 26t34 91v74q0 109 -129 108h-170v93h172q109 0 108 92v100q0 55 -31.5 76.5t-105.5 21.5q-86 0 -178 -18l-14 84q82 25 188 24q240 0 240 -184v-102q0 -94 -84 -139q102 -39 102 -154v-78q0 -109 -61.5 -157t-204.5 -48 q-91 0 -193 29zM518 -20l537 1396l84 -33l-535 -1396zM969 186v99l348 544h127v-553h121v-90h-121v-186h-98v186h-377zM1073 276h273v445z" />
<glyph unicode="&#xbf;" horiz-adv-x="937" d="M143 -63q0 180 32 248.5t165 172.5l213 170l70 -90l-224 -178q-98 -82 -117.5 -129t-19.5 -190q0 -84 7 -128t34 -77t77 -43t140 -10q131 0 275 30l20 -102q-145 -35 -299 -35q-227 0 -300 79t-73 282zM496 801v196h127v-196h-127z" />
<glyph unicode="&#xc0;" horiz-adv-x="1271" d="M72 0l475 1364h178l475 -1364h-119l-129 358h-635l-127 -358h-118zM354 463h561l-280 831zM383 1624l59 90q100 -74 250 -164l-55 -84q-121 64 -254 158z" />
<glyph unicode="&#xc1;" horiz-adv-x="1271" d="M72 0l475 1364h178l475 -1364h-119l-129 358h-635l-127 -358h-118zM354 463h561l-280 831zM578 1550q150 90 249 164l60 -90q-133 -94 -254 -158z" />
<glyph unicode="&#xc2;" horiz-adv-x="1271" d="M72 0l475 1364h178l475 -1364h-119l-129 358h-635l-127 -358h-118zM354 463h561l-280 831zM381 1546q133 82 256 168q147 -104 254 -168l-43 -80q-86 45 -211 123q-152 -92 -211 -123z" />
<glyph unicode="&#xc3;" horiz-adv-x="1271" d="M72 0l475 1364h178l475 -1364h-119l-129 358h-635l-127 -358h-118zM354 463h561l-280 831zM365 1556q68 100 167 101q39 0 111 -33q82 -37 117 -37q53 0 98 51l60 -53q-61 -100 -158 -100q-45 0 -117 33q-82 37 -115 36q-53 0 -110 -57z" />
<glyph unicode="&#xc4;" horiz-adv-x="1271" d="M72 0l475 1364h178l475 -1364h-119l-129 358h-635l-127 -358h-118zM354 463h561l-280 831zM391 1503v123h135v-123h-135zM743 1503v123h136v-123h-136z" />
<glyph unicode="&#xc5;" horiz-adv-x="1271" d="M72 0l475 1364h178l475 -1364h-119l-129 358h-635l-127 -358h-118zM354 463h561l-280 831zM506 1546q0 57 33.5 91t95 34t95.5 -33.5t34 -91.5q0 -55 -34 -91t-95.5 -36t-95 36t-33.5 91zM573 1546.5q0 -65.5 62 -65.5q59 0 59 65.5t-59 65.5q-62 0 -62 -65.5z" />
<glyph unicode="&#xc6;" horiz-adv-x="1718" d="M72 0l475 1364h1026v-109h-811l170 -485h596v-108h-559l192 -553h414v-109h-494l-129 358h-635l-127 -358h-118zM354 463h561l-280 831z" />
<glyph unicode="&#xc7;" horiz-adv-x="1046" d="M154 375v614q0 197 106.5 296t345.5 99q174 0 328 -30l-14 -105q-150 27 -304 27q-186 0 -264 -64.5t-78 -224.5v-610q0 -160 78 -224.5t264 -64.5q154 0 304 27l14 -105q-141 -27 -309 -30l-27 -123q29 6 57 6q66 0 108 -33t42 -96q0 -70 -51.5 -114t-143.5 -44 q-78 0 -159 29l18 71q66 -18 125 -18q117 0 117 72q0 63 -97 63q-61 0 -118 -12l43 201q-203 14 -294 112.5t-91 280.5z" />
<glyph unicode="&#xc8;" horiz-adv-x="1097" d="M184 0v1364h768v-109h-647v-505h602v-109h-602v-532h649v-109h-770zM350 1624l60 90q100 -74 249 -164l-55 -84q-121 64 -254 158z" />
<glyph unicode="&#xc9;" horiz-adv-x="1097" d="M184 0v1364h768v-109h-647v-505h602v-109h-602v-532h649v-109h-770zM471 1550q150 90 250 164l59 -90q-133 -94 -254 -158z" />
<glyph unicode="&#xca;" horiz-adv-x="1097" d="M184 0v1364h768v-109h-647v-505h602v-109h-602v-532h649v-109h-770zM326 1546q133 82 256 168q147 -104 254 -168l-43 -80q-86 45 -211 123q-152 -92 -211 -123z" />
<glyph unicode="&#xcb;" horiz-adv-x="1097" d="M184 0v1364h768v-109h-647v-505h602v-109h-602v-532h649v-109h-770zM336 1503v123h135v-123h-135zM688 1503v123h135v-123h-135z" />
<glyph unicode="&#xcc;" horiz-adv-x="509" d="M12 1624l60 90q100 -74 250 -164l-56 -84q-121 64 -254 158zM195 0v1364h120v-1364h-120z" />
<glyph unicode="&#xcd;" horiz-adv-x="509" d="M195 0v1364h120v-1364h-120zM197 1550q150 90 249 164l60 -90q-133 -94 -254 -158z" />
<glyph unicode="&#xce;" horiz-adv-x="509" d="M0 1546q133 82 256 168q147 -104 254 -168l-43 -80q-86 45 -211 123q-152 -92 -211 -123zM195 0v1364h120v-1364h-120z" />
<glyph unicode="&#xcf;" horiz-adv-x="509" d="M10 1503v123h135v-123h-135zM195 0v1364h120v-1364h-120zM362 1503v123h136v-123h-136z" />
<glyph unicode="&#xd0;" horiz-adv-x="1284" d="M102 643v102h158v619h451q233 0 329.5 -106.5t96.5 -296.5v-558q0 -190 -96.5 -296.5t-329.5 -106.5h-451v643h-158zM381 109h332q168 0 235.5 68.5t67.5 219.5v570q0 152 -67.5 220t-235.5 68h-332v-510h289v-102h-289v-534z" />
<glyph unicode="&#xd1;" horiz-adv-x="1306" d="M184 0v1364h176l648 -1247v1247h114v-1364h-176l-647 1245v-1245h-115zM403 1556q68 100 168 101q39 0 111 -33q84 -37 117 -37q53 0 98 51l59 -53q-61 -100 -157 -100q-45 0 -117 33q-82 37 -115 36q-53 0 -110 -57z" />
<glyph unicode="&#xd2;" horiz-adv-x="1261" d="M154 385v594q0 188 113.5 296.5t363.5 108.5t363.5 -108.5t113.5 -296.5v-594q0 -188 -113.5 -296.5t-363.5 -108.5t-363.5 108.5t-113.5 296.5zM274 389q0 -152 83 -226.5t273.5 -74.5t273.5 75t83 226v586q0 152 -83 226.5t-273.5 74.5t-273.5 -75t-83 -226v-586z M410 1624l59 90q100 -74 250 -164l-55 -84q-121 64 -254 158z" />
<glyph unicode="&#xd3;" horiz-adv-x="1261" d="M154 385v594q0 188 113.5 296.5t363.5 108.5t363.5 -108.5t113.5 -296.5v-594q0 -188 -113.5 -296.5t-363.5 -108.5t-363.5 108.5t-113.5 296.5zM274 389q0 -152 83 -226.5t273.5 -74.5t273.5 75t83 226v586q0 152 -83 226.5t-273.5 74.5t-273.5 -75t-83 -226v-586z M553 1550q150 90 250 164l59 -90q-133 -94 -254 -158z" />
<glyph unicode="&#xd4;" horiz-adv-x="1261" d="M154 385v594q0 188 113.5 296.5t363.5 108.5t363.5 -108.5t113.5 -296.5v-594q0 -188 -113.5 -296.5t-363.5 -108.5t-363.5 108.5t-113.5 296.5zM274 389q0 -152 83 -226.5t273.5 -74.5t273.5 75t83 226v586q0 152 -83 226.5t-273.5 74.5t-273.5 -75t-83 -226v-586z M377 1546q133 82 256 168q147 -104 254 -168l-43 -80q-86 45 -211 123q-152 -92 -211 -123z" />
<glyph unicode="&#xd5;" horiz-adv-x="1261" d="M154 385v594q0 188 113.5 296.5t363.5 108.5t363.5 -108.5t113.5 -296.5v-594q0 -188 -113.5 -296.5t-363.5 -108.5t-363.5 108.5t-113.5 296.5zM274 389q0 -152 83 -226.5t273.5 -74.5t273.5 75t83 226v586q0 152 -83 226.5t-273.5 74.5t-273.5 -75t-83 -226v-586z M367 1556q68 100 168 101q39 0 110 -33q84 -37 117 -37q53 0 98 51l60 -53q-61 -100 -158 -100q-45 0 -117 33q-82 37 -115 36q-53 0 -110 -57z" />
<glyph unicode="&#xd6;" horiz-adv-x="1261" d="M154 385v594q0 188 113.5 296.5t363.5 108.5t363.5 -108.5t113.5 -296.5v-594q0 -188 -113.5 -296.5t-363.5 -108.5t-363.5 108.5t-113.5 296.5zM274 389q0 -152 83 -226.5t273.5 -74.5t273.5 75t83 226v586q0 152 -83 226.5t-273.5 74.5t-273.5 -75t-83 -226v-586z M387 1503v123h135v-123h-135zM739 1503v123h135v-123h-135z" />
<glyph unicode="&#xd7;" horiz-adv-x="1122" d="M164 176l321 324l-321 323l74 74l323 -322l324 322l73 -74l-321 -323l321 -324l-73 -74l-324 322l-323 -322z" />
<glyph unicode="&#xd8;" horiz-adv-x="1261" d="M154 -82l100 182q-100 100 -100 285v594q0 188 113.5 296.5t363.5 108.5q188 0 305 -67l94 170l78 -43l-102 -180q102 -102 102 -285v-594q0 -188 -113.5 -296.5t-363.5 -108.5q-193 0 -305 65l-95 -168zM274 389q0 -111 41 -178l566 1008q-90 57 -250 57 q-190 0 -273.5 -75t-83.5 -226v-586zM381 145q82 -57 250 -57q190 0 273 75t83 226v586q0 106 -43 178z" />
<glyph unicode="&#xd9;" horiz-adv-x="1290" d="M174 387v977h121v-977q0 -143 90 -221t260 -78t260 78t90 221v977h121v-977q0 -184 -116.5 -295.5t-354 -111.5t-354.5 111.5t-117 295.5zM422 1624l59 90q100 -74 250 -164l-55 -84q-121 64 -254 158z" />
<glyph unicode="&#xda;" horiz-adv-x="1290" d="M174 387v977h121v-977q0 -143 90 -221t260 -78t260 78t90 221v977h121v-977q0 -184 -116.5 -295.5t-354 -111.5t-354.5 111.5t-117 295.5zM563 1550q150 90 250 164l59 -90q-133 -94 -254 -158z" />
<glyph unicode="&#xdb;" horiz-adv-x="1290" d="M174 387v977h121v-977q0 -143 90 -221t260 -78t260 78t90 221v977h121v-977q0 -184 -116.5 -295.5t-354 -111.5t-354.5 111.5t-117 295.5zM391 1546q133 82 256 168q147 -104 254 -168l-43 -80q-86 45 -211 123q-152 -92 -211 -123z" />
<glyph unicode="&#xdc;" horiz-adv-x="1290" d="M174 387v977h121v-977q0 -143 90 -221t260 -78t260 78t90 221v977h121v-977q0 -184 -116.5 -295.5t-354 -111.5t-354.5 111.5t-117 295.5zM401 1503v123h136v-123h-136zM754 1503v123h135v-123h-135z" />
<glyph unicode="&#xdd;" horiz-adv-x="1112" d="M31 1364h125l399 -823l401 823h125l-465 -944v-420h-120v420zM481 1550q150 90 250 164l60 -90q-133 -94 -254 -158z" />
<glyph unicode="&#xde;" horiz-adv-x="1114" d="M184 0v1364h121v-250h342q375 0 375 -315v-213q0 -315 -375 -316h-342v-270h-121zM305 379h344q131 0 191.5 48t60.5 159v213q0 111 -60.5 159t-191.5 48h-344v-627z" />
<glyph unicode="&#xdf;" horiz-adv-x="1214" d="M184 0v1085q0 170 97.5 265.5t273.5 95.5q174 0 262 -85t88 -216q0 -137 -80 -281q-70 -125 -69 -190q0 -23 5 -38t41 -51t105 -81q125 -82 155 -127t30 -154q0 -127 -59.5 -185t-235.5 -58q-119 0 -217 38l18 99q98 -31 201 -31q104 0 139 25.5t35 105.5q0 82 -24.5 117 t-143.5 108q-104 66 -136 116t-32 120q0 84 61 196q57 104 72.5 154.5t15.5 118.5q0 197 -233 196q-250 0 -250 -284v-1059h-119z" />
<glyph unicode="&#xe0;" horiz-adv-x="993" d="M133 258q0 154 69.5 215.5t223.5 61.5h295v194q0 100 -55.5 141t-180.5 41q-131 0 -295 -32l-18 100q137 39 307 39q188 0 274.5 -73t86.5 -216v-729h-103l-8 78q-160 -98 -338 -98q-258 -1 -258 278zM252 256q0 -94 31.5 -132t132.5 -38q160 0 305 102v240h-291 q-102 0 -140 -37t-38 -135zM281 1288l59 90q106 -76 268 -176l-55 -84q-166 92 -272 170z" />
<glyph unicode="&#xe1;" horiz-adv-x="993" d="M133 258q0 154 69.5 215.5t223.5 61.5h295v194q0 100 -55.5 141t-180.5 41q-131 0 -295 -32l-18 100q137 39 307 39q188 0 274.5 -73t86.5 -216v-729h-103l-8 78q-160 -98 -338 -98q-258 -1 -258 278zM252 256q0 -94 31.5 -132t132.5 -38q160 0 305 102v240h-291 q-102 0 -140 -37t-38 -135zM377 1202q162 100 268 176l60 -90q-106 -78 -273 -170z" />
<glyph unicode="&#xe2;" horiz-adv-x="993" d="M133 258q0 154 69.5 215.5t223.5 61.5h295v194q0 100 -55.5 141t-180.5 41q-131 0 -295 -32l-18 100q137 39 307 39q188 0 274.5 -73t86.5 -216v-729h-103l-8 78q-160 -98 -338 -98q-258 -1 -258 278zM242 1200q117 70 264 172q156 -111 262 -172l-43 -80l-219 127 q-147 -90 -219 -127zM252 256q0 -94 31.5 -132t132.5 -38q160 0 305 102v240h-291q-102 0 -140 -37t-38 -135z" />
<glyph unicode="&#xe3;" horiz-adv-x="993" d="M133 258q0 154 69.5 215.5t223.5 61.5h295v194q0 100 -55.5 141t-180.5 41q-131 0 -295 -32l-18 100q137 39 307 39q188 0 274.5 -73t86.5 -216v-729h-103l-8 78q-160 -98 -338 -98q-258 -1 -258 278zM238 1202q68 100 168 101q39 0 110 -33q82 -37 117 -37q53 0 98 51 l60 -53q-61 -100 -158 -101q-45 0 -117 33q-82 37 -115 37q-53 0 -110 -57zM252 256q0 -94 31.5 -132t132.5 -38q160 0 305 102v240h-291q-102 0 -140 -37t-38 -135z" />
<glyph unicode="&#xe4;" horiz-adv-x="993" d="M133 258q0 154 69.5 215.5t223.5 61.5h295v194q0 100 -55.5 141t-180.5 41q-131 0 -295 -32l-18 100q137 39 307 39q188 0 274.5 -73t86.5 -216v-729h-103l-8 78q-160 -98 -338 -98q-258 -1 -258 278zM252 256q0 -94 31.5 -132t132.5 -38q160 0 305 102v240h-291 q-102 0 -140 -37t-38 -135zM287 1143v135h127v-135h-127zM635 1143v135h127v-135h-127z" />
<glyph unicode="&#xe5;" horiz-adv-x="993" d="M133 258q0 154 69.5 215.5t223.5 61.5h295v194q0 100 -55.5 141t-180.5 41q-131 0 -295 -32l-18 100q137 39 307 39q188 0 274.5 -73t86.5 -216v-729h-103l-8 78q-160 -98 -338 -98q-258 -1 -258 278zM252 256q0 -94 31.5 -132t132.5 -38q160 0 305 102v240h-291 q-102 0 -140 -37t-38 -135zM369 1239q0 57 35.5 93t97 36t97.5 -36t36 -93q0 -55 -36 -93t-97.5 -38t-97 38t-35.5 93zM436 1239q0 -31 17.5 -50.5t48 -19.5t47 19.5t16.5 50.5q0 70 -63 70q-31 0 -48.5 -19.5t-17.5 -50.5z" />
<glyph unicode="&#xe6;" horiz-adv-x="1579" d="M133 264q0 160 68.5 218.5t224.5 58.5h295v139q0 231 -227 231q-125 0 -304 -32l-16 100q145 39 305 39q217 0 301 -139q57 74 127 106.5t187 32.5q362 0 362 -363v-192h-616v-152q4 -121 61 -174t191 -53q164 0 323 41l21 -96q-166 -49 -344 -49q-223 0 -310 120 q-145 -121 -348 -120q-301 -1 -301 284zM252 262q0 -102 43 -139t141 -37q170 0 303 109q-18 57 -18 147v92h-289q-102 0 -141 -34t-39 -138zM840 569h499v90q0 131 -55 193.5t-190.5 62.5t-194.5 -63.5t-59 -192.5v-90z" />
<glyph unicode="&#xe7;" horiz-adv-x="819" d="M113 324v350q0 170 87 257t289 87q119 0 228 -29l-15 -98q-121 20 -213 20q-141 0 -199.5 -51t-58.5 -182v-359q0 -131 58.5 -182t199.5 -51q92 0 213 20l15 -98q-102 -25 -221 -28l-27 -123q27 6 57 6q66 0 108 -33t42 -96q0 -70 -51.5 -114t-143.5 -44q-78 0 -159 29 l18 71q66 -18 125 -18q117 0 117 72q0 63 -97 63q-61 0 -118 -12l43 203q-158 16 -227.5 101t-69.5 239z" />
<glyph unicode="&#xe8;" horiz-adv-x="980" d="M123 342v313q0 362 373 363q362 0 362 -363v-192h-616v-125q0 -137 57 -195.5t203 -58.5q141 0 315 47l21 -96q-156 -55 -344 -55q-201 0 -286 94t-85 268zM242 569h499v90q0 131 -55 193.5t-190.5 62.5t-194.5 -63.5t-59 -192.5v-90zM272 1288l60 90q106 -76 268 -176 l-55 -84q-167 92 -273 170z" />
<glyph unicode="&#xe9;" horiz-adv-x="980" d="M123 342v313q0 362 373 363q362 0 362 -363v-192h-616v-125q0 -137 57 -195.5t203 -58.5q141 0 315 47l21 -96q-156 -55 -344 -55q-201 0 -286 94t-85 268zM242 569h499v90q0 131 -55 193.5t-190.5 62.5t-194.5 -63.5t-59 -192.5v-90zM385 1202q162 100 268 176l60 -90 q-106 -78 -273 -170z" />
<glyph unicode="&#xea;" horiz-adv-x="980" d="M123 342v313q0 362 373 363q362 0 362 -363v-192h-616v-125q0 -137 57 -195.5t203 -58.5q141 0 315 47l21 -96q-156 -55 -344 -55q-201 0 -286 94t-85 268zM242 569h499v90q0 131 -55 193.5t-190.5 62.5t-194.5 -63.5t-59 -192.5v-90zM252 1200q117 70 264 172 q156 -111 262 -172l-43 -80l-219 127q-147 -90 -219 -127z" />
<glyph unicode="&#xeb;" horiz-adv-x="980" d="M123 342v313q0 362 373 363q362 0 362 -363v-192h-616v-125q0 -137 57 -195.5t203 -58.5q141 0 315 47l21 -96q-156 -55 -344 -55q-201 0 -286 94t-85 268zM242 569h499v90q0 131 -55 193.5t-190.5 62.5t-194.5 -63.5t-59 -192.5v-90zM256 1143v135h127v-135h-127z M604 1143v135h127v-135h-127z" />
<glyph unicode="&#xec;" horiz-adv-x="466" d="M-18 1288l59 90q106 -76 268 -176l-55 -84q-166 92 -272 170zM174 0v997h119v-997h-119z" />
<glyph unicode="&#xed;" horiz-adv-x="466" d="M172 1202q162 100 268 176l60 -90q-106 -78 -273 -170zM174 0v997h119v-997h-119z" />
<glyph unicode="&#xee;" horiz-adv-x="466" d="M-29 1200q117 70 265 172q156 -111 262 -172l-43 -80l-219 127q-147 -90 -220 -127zM174 0v997h119v-997h-119z" />
<glyph unicode="&#xef;" horiz-adv-x="466" d="M-4 1143v135h127v-135h-127zM174 0v997h119v-997h-119zM344 1143v135h127v-135h-127z" />
<glyph unicode="&#xf0;" horiz-adv-x="1050" d="M133 342v242q0 184 96.5 273t268.5 89q166 0 290 -96q-4 209 -167 336l-172 -133l-50 67l150 117q-96 61 -242 106l31 93q178 -57 295 -133l131 104l51 -68l-113 -88q205 -170 205 -487v-422q0 -166 -94 -264t-292.5 -98t-293 98t-94.5 264zM252 338q0 -127 64.5 -189.5 t203.5 -62.5t203.5 62.5t64.5 189.5v379q-39 49 -116.5 86t-163.5 37q-137 0 -196.5 -61.5t-59.5 -190.5v-250z" />
<glyph unicode="&#xf1;" d="M174 0v997h105l8 -90q90 43 205.5 77t199.5 34q211 0 211 -225v-793h-119v807q0 100 -108 100q-63 0 -178 -33.5t-205 -80.5v-793h-119zM268 1202q68 100 168 101q39 0 111 -33q84 -37 117 -37q53 0 98 51l59 -53q-61 -100 -157 -101q-45 0 -117 33q-82 37 -115 37 q-53 0 -110 -57z" />
<glyph unicode="&#xf2;" horiz-adv-x="1019" d="M123 342v313q0 166 94 264.5t293 98.5t293 -98.5t94 -264.5v-313q0 -166 -94 -264t-293 -98t-293 98t-94 264zM242 338q0 -127 64.5 -189.5t203.5 -62.5t203.5 62.5t64.5 189.5v321q0 127 -64.5 189.5t-203.5 62.5t-203.5 -62.5t-64.5 -189.5v-321zM307 1288l60 90 q106 -76 268 -176l-55 -84q-167 92 -273 170z" />
<glyph unicode="&#xf3;" horiz-adv-x="1019" d="M123 342v313q0 166 94 264.5t293 98.5t293 -98.5t94 -264.5v-313q0 -166 -94 -264t-293 -98t-293 98t-94 264zM242 338q0 -127 64.5 -189.5t203.5 -62.5t203.5 62.5t64.5 189.5v321q0 127 -64.5 189.5t-203.5 62.5t-203.5 -62.5t-64.5 -189.5v-321zM410 1202 q162 100 268 176l59 -90q-106 -78 -272 -170z" />
<glyph unicode="&#xf4;" horiz-adv-x="1019" d="M123 342v313q0 166 94 264.5t293 98.5t293 -98.5t94 -264.5v-313q0 -166 -94 -264t-293 -98t-293 98t-94 264zM242 338q0 -127 64.5 -189.5t203.5 -62.5t203.5 62.5t64.5 189.5v321q0 127 -64.5 189.5t-203.5 62.5t-203.5 -62.5t-64.5 -189.5v-321zM248 1200 q117 70 264 172q156 -111 262 -172l-43 -80l-219 127q-147 -90 -219 -127z" />
<glyph unicode="&#xf5;" horiz-adv-x="1019" d="M123 342v313q0 166 94 264.5t293 98.5t293 -98.5t94 -264.5v-313q0 -166 -94 -264t-293 -98t-293 98t-94 264zM242 338q0 -127 64.5 -189.5t203.5 -62.5t203.5 62.5t64.5 189.5v321q0 127 -64.5 189.5t-203.5 62.5t-203.5 -62.5t-64.5 -189.5v-321zM248 1202 q68 100 168 101q39 0 110 -33q84 -37 117 -37q53 0 98 51l60 -53q-61 -100 -158 -101q-45 0 -117 33q-82 37 -114 37q-53 0 -111 -57z" />
<glyph unicode="&#xf6;" horiz-adv-x="1019" d="M123 342v313q0 166 94 264.5t293 98.5t293 -98.5t94 -264.5v-313q0 -166 -94 -264t-293 -98t-293 98t-94 264zM242 338q0 -127 64.5 -189.5t203.5 -62.5t203.5 62.5t64.5 189.5v321q0 127 -64.5 189.5t-203.5 62.5t-203.5 -62.5t-64.5 -189.5v-321zM272 1143v135h127 v-135h-127zM621 1143v135h127v-135h-127z" />
<glyph unicode="&#xf7;" horiz-adv-x="1159" d="M164 444v107h831v-107h-831zM516 90v156h127v-156h-127zM516 750v155h127v-155h-127z" />
<glyph unicode="&#xf8;" horiz-adv-x="1019" d="M123 -59l86 143q-86 92 -86 258v313q0 166 94 264.5t293 98.5q137 0 233 -53l82 135l72 -45l-88 -144q88 -90 88 -256v-313q0 -166 -94 -264t-293 -98q-141 0 -234 53l-81 -135zM242 338q0 -88 30 -148l414 680q-66 41 -176 41q-139 0 -203.5 -62.5t-64.5 -189.5v-321z M334 127q61 -41 176 -41q139 0 203.5 62.5t64.5 189.5v321q0 90 -33 148z" />
<glyph unicode="&#xf9;" d="M164 205v792h119v-807q0 -100 108 -100q63 0 178 34t205 81v792h119v-997h-105l-8 90q-90 -43 -205.5 -76.5t-199.5 -33.5q-211 0 -211 225zM305 1288l60 90q106 -76 268 -176l-55 -84q-167 92 -273 170z" />
<glyph unicode="&#xfa;" d="M164 205v792h119v-807q0 -100 108 -100q63 0 178 34t205 81v792h119v-997h-105l-8 90q-90 -43 -205.5 -76.5t-199.5 -33.5q-211 0 -211 225zM428 1202q162 100 268 176l60 -90q-106 -78 -273 -170z" />
<glyph unicode="&#xfb;" d="M164 205v792h119v-807q0 -100 108 -100q63 0 178 34t205 81v792h119v-997h-105l-8 90q-90 -43 -205.5 -76.5t-199.5 -33.5q-211 0 -211 225zM285 1200q117 70 264 172q156 -111 262 -172l-43 -80l-219 127q-147 -90 -219 -127z" />
<glyph unicode="&#xfc;" d="M164 205v792h119v-807q0 -100 108 -100q63 0 178 34t205 81v792h119v-997h-105l-8 90q-90 -43 -205.5 -76.5t-199.5 -33.5q-211 0 -211 225zM303 1143v135h127v-135h-127zM651 1143v135h127v-135h-127z" />
<glyph unicode="&#xfd;" horiz-adv-x="909" d="M31 997h121l307 -913l309 913h121l-338 -997l-148 -403h-116l149 403h-67zM365 1202q162 100 268 176l59 -90q-106 -78 -272 -170z" />
<glyph unicode="&#xfe;" horiz-adv-x="1060" d="M184 -428v1833l119 16v-516q150 113 332 113q283 0 283 -277v-454q0 -307 -308 -307q-141 0 -307 32v-415zM303 121q168 -35 311 -35q96 0 140.5 49t44.5 152v454q0 90 -37 130t-135 40q-166 0 -324 -127v-663z" />
<glyph unicode="&#xff;" horiz-adv-x="909" d="M31 997h121l307 -913l309 913h121l-338 -997l-148 -403h-116l149 403h-67zM223 1143v135h127v-135h-127zM571 1143v135h127v-135h-127z" />
<glyph unicode="&#x152;" horiz-adv-x="1832" d="M154 406v552q0 188 113.5 297t363.5 109h1057v-109h-648v-485h602v-108h-602v-553h650v-109h-1059q-250 0 -363.5 109t-113.5 297zM274 410q0 -152 83 -226.5t274 -74.5h289v1146h-289q-190 0 -273.5 -74.5t-83.5 -226.5v-544z" />
<glyph unicode="&#x153;" horiz-adv-x="1636" d="M123 342v313q0 166 94 264.5t293 98.5q219 0 326 -148q90 147 315 148q362 0 362 -363v-192h-616v-137q0 -131 57.5 -186.5t194.5 -55.5q164 0 324 41l20 -96q-166 -49 -344 -49q-236 0 -318 143q-102 -143 -321 -143q-199 0 -293 98t-94 264zM242 338 q0 -127 64.5 -189.5t203.5 -62.5q268 0 268 240v333q0 127 -64.5 189.5t-203.5 62.5t-203.5 -62.5t-64.5 -189.5v-321zM897 569h500v90q0 131 -55.5 193.5t-190.5 62.5t-194.5 -63.5t-59.5 -192.5v-90z" />
<glyph unicode="&#x178;" horiz-adv-x="1112" d="M31 1364h125l399 -823l401 823h125l-465 -944v-420h-120v420zM311 1503v123h135v-123h-135zM664 1503v123h135v-123h-135z" />
<glyph unicode="&#x2c6;" horiz-adv-x="813" d="M143 1200q117 70 265 172q156 -111 262 -172l-43 -80l-219 127q-147 -90 -220 -127z" />
<glyph unicode="&#x2dc;" horiz-adv-x="839" d="M143 1202q68 100 168 101q39 0 111 -33q82 -37 117 -37q53 0 98 51l59 -53q-61 -100 -157 -101q-45 0 -117 33q-82 37 -115 37q-53 0 -110 -57z" />
<glyph unicode="&#x2013;" horiz-adv-x="1015" d="M154 524v101h708v-101h-708z" />
<glyph unicode="&#x2014;" horiz-adv-x="1282" d="M154 524v101h974v-101h-974z" />
<glyph unicode="&#x2018;" horiz-adv-x="493" d="M184 1030v176l99 221l57 -24l-74 -197h45v-176h-127z" />
<glyph unicode="&#x2019;" horiz-adv-x="452" d="M164 1032l74 197h-45v176h126v-176l-98 -221z" />
<glyph unicode="&#x201a;" horiz-adv-x="493" d="M154 -197l73 197h-45v176h127v-176l-98 -221z" />
<glyph unicode="&#x201c;" horiz-adv-x="811" d="M184 1030v176l99 221l57 -24l-74 -197h45v-176h-127zM502 1030v176l98 221l57 -24l-73 -197h45v-176h-127z" />
<glyph unicode="&#x201d;" horiz-adv-x="811" d="M154 1032l73 197h-45v176h127v-176l-98 -221zM471 1032l74 197h-45v176h127v-176l-99 -221z" />
<glyph unicode="&#x201e;" horiz-adv-x="811" d="M154 -197l73 197h-45v176h127v-176l-98 -221zM471 -197l74 197h-45v176h127v-176l-99 -221z" />
<glyph unicode="&#x2022;" horiz-adv-x="782" d="M154 661.5q0 98.5 69.5 168t167.5 69.5t168 -69.5t70 -168t-70 -168t-168 -69.5t-167.5 69.5t-69.5 168z" />
<glyph unicode="&#x2026;" horiz-adv-x="1445" d="M184 0v176h127v-176h-127zM659 0v176h127v-176h-127zM1135 0v176h127v-176h-127z" />
<glyph unicode="&#x2039;" horiz-adv-x="598" d="M113 500l262 395l90 -61l-221 -334l221 -334l-90 -62z" />
<glyph unicode="&#x203a;" horiz-adv-x="598" d="M133 166l221 334l-221 334l90 61l262 -395l-262 -396z" />
<glyph unicode="&#x20ac;" horiz-adv-x="1132" d="M82 442v95h186v260h-186v94h186v57q0 197 106.5 296t346.5 99q156 0 299 -30l-14 -105q-127 27 -275 27q-186 0 -264 -64.5t-78 -224.5v-55h428v-94h-428v-260h428v-95h-428v-65q0 -160 78 -224.5t264 -64.5q125 0 275 27l14 -105q-154 -31 -299 -30q-240 0 -346.5 99 t-106.5 296v67h-186z" />
<glyph unicode="&#x2122;" horiz-adv-x="1069" d="M113 1303v61h323v-61h-129v-361h-65v361h-129zM528 942l11 422h79l119 -322l121 322h74l14 -422h-67l-5 297l-96 -246h-82l-94 248l-6 -299h-68z" />
<glyph unicode="&#xe000;" horiz-adv-x="995" d="M0 995h995v-995h-995v995z" />
<glyph unicode="&#xfb01;" horiz-adv-x="1198" d="M72 895v102h186v209q0 119 68.5 179.5t189.5 60.5q111 0 205 -31l-16 -92q-102 20 -181 20q-84 0 -115.5 -34.5t-31.5 -116.5v-195h647v-997h-119v895h-528v-895h-119v895h-186zM905 1186v219h119v-219h-119z" />
<glyph unicode="&#xfb02;" horiz-adv-x="1198" d="M72 895v102h186v209q0 119 68.5 179.5t189.5 60.5q102 0 195 -29l-17 -92q-90 18 -170 18q-84 0 -115.5 -34.5t-31.5 -116.5v-195h297l-12 -102h-285v-895h-119v895h-186zM905 0v1405l119 16v-1421h-119z" />
<glyph unicode="&#xfb03;" horiz-adv-x="1929" d="M72 897v100h186v209q0 119 68.5 179.5t189.5 60.5q113 0 205 -29l-16 -92q-98 18 -181 18q-84 0 -115.5 -34.5t-31.5 -116.5v-195h612v209q0 119 68.5 179.5t189.5 60.5q113 0 205 -29l-16 -92q-98 18 -181 18q-84 0 -115.5 -34.5t-31.5 -116.5v-195h647v-997h-119v897 h-528v-897h-119v897h-612v-897h-119v897h-186zM1636 1186v219h119v-219h-119z" />
<glyph unicode="&#xfb04;" horiz-adv-x="1929" d="M72 897v100h186v209q0 119 68.5 179.5t189.5 60.5q113 0 205 -29l-16 -92q-98 18 -181 18q-84 0 -115.5 -34.5t-31.5 -116.5v-195h612v209q0 119 68.5 179.5t189.5 60.5q102 0 195 -29l-17 -92q-90 18 -170 18q-84 0 -115.5 -34.5t-31.5 -116.5v-195h297l-12 -100h-285 v-897h-119v897h-612v-897h-119v897h-186zM1636 0v1405l119 16v-1421h-119z" />
</font>
</defs>
</svg>
