<?xml version="1.0" standalone="no"?>
<!DOCTYPE svg PUBLIC "-//W3C//DTD SVG 1.1//EN" "http://www.w3.org/Graphics/SVG/1.1/DTD/svg11.dtd" >
<svg xmlns="http://www.w3.org/2000/svg">
<metadata></metadata>
<defs>
<font id="klavika_ch_bold_condensed_iRg" horiz-adv-x="845" >
<font-face units-per-em="2048" ascent="1536" descent="-512" />
<missing-glyph horiz-adv-x="364" />
<glyph unicode="&#xfb01;" horiz-adv-x="915" d="M-92 -287q56 80 83.5 140.5t41.5 146.5l135 764h-94l41 233h94l31 177q25 141 98.5 206.5t210.5 65.5t262 -64l-61 -202q-85 32 -156 32q-79 0 -90 -73l-25 -142h318l123 19l-179 -1016h-270l133 764h-166l-135 -764q-26 -148 -72 -234t-153 -190z" />
<glyph unicode="&#xfb02;" horiz-adv-x="952" d="M-92 -287q56 80 83.5 140.5t41.5 146.5l135 764h-94l41 233h94l31 177q25 141 97.5 206.5t211.5 65.5q111 0 235 -37l248 37l-254 -1446h-270l211 1200q-49 12 -125 12q-79 0 -90 -73l-25 -142h137l-41 -233h-137l-135 -764q-26 -148 -72 -234t-153 -190z" />
<glyph horiz-adv-x="2048" />
<glyph horiz-adv-x="2048" />
<glyph unicode="&#xd;" horiz-adv-x="2048" />
<glyph unicode=" "  horiz-adv-x="364" />
<glyph unicode="&#x09;" horiz-adv-x="364" />
<glyph unicode="&#xa0;" horiz-adv-x="364" />
<glyph unicode="!" horiz-adv-x="464" d="M0 0l55 315h271l-56 -315h-270zM129 453l10 346l101 565h272l-100 -565l-111 -346h-172z" />
<glyph unicode="&#x22;" horiz-adv-x="784" d="M137 840l92 524h242l-92 -524h-242zM516 840l92 524h242l-92 -524h-242z" />
<glyph unicode="#" horiz-adv-x="1124" d="M33 369l43 192h164l59 266h-166l41 193h166l78 344h217l-78 -344h215l78 344h217l-78 -344h160l-41 -193h-160l-59 -266h160l-39 -192h-164l-80 -369h-217l80 369h-215l-80 -369h-217l80 369h-164zM457 561h215l59 266h-215z" />
<glyph unicode="$" horiz-adv-x="798" d="M20 57l54 232q105 -43 209 -43q101 0 137.5 46t36.5 146q0 39 -27 66t-117 90q-103 73 -144.5 135t-41.5 141q0 220 73.5 334.5t233.5 143.5l41 227h215l-41 -223q95 -10 191 -54l-56 -227q-124 47 -233 47q-72 0 -104.5 -33.5t-32.5 -103.5q0 -13 1.5 -23t3 -18 t7.5 -16.5t10 -14t16.5 -16t20 -16.5t28 -21.5t34.5 -26.5q136 -104 171 -155t35 -148q0 -82 -14.5 -156.5t-48.5 -148.5t-101 -128t-161 -75l-33 -188h-215l31 180q-101 9 -179 47z" />
<glyph unicode="%" horiz-adv-x="1576" d="M127 821q0 24 6 58l43 241q26 142 98.5 205.5t231.5 63.5q116 0 176.5 -57t60.5 -158q0 -37 -6 -64l-41 -231q-23 -131 -97.5 -200t-225.5 -69q-122 0 -184 57.5t-62 153.5zM348 854q-9 -57 53 -57q65 0 74 57l51 289q9 59 -53 59q-65 0 -74 -57zM387 72l680 1317 l176 -99l-680 -1315zM887 186q0 24 6 58l43 241q26 142 98.5 205.5t231.5 63.5q116 0 176.5 -57t60.5 -158q0 -37 -6 -64l-41 -231q-23 -131 -97.5 -200t-225.5 -69q-122 0 -184 57.5t-62 153.5zM1108 219q-9 -57 53 -57q65 0 74 57l51 289q9 59 -53 59q-65 0 -74 -57z" />
<glyph unicode="&#x26;" horiz-adv-x="1134" d="M20 229q0 28 7 72l12 70q10 56 25.5 96.5t46 75t51.5 52.5t71 56l60 43l-47 76q-35 57 -51.5 102t-16.5 97q0 35 6 75l9 48q51 292 405 292q150 0 237 -66.5t87 -182.5q0 -18 -4 -54l-9 -49q-16 -93 -52.5 -153.5t-121.5 -124.5l-112 -84q64 -101 112 -172l146 188 l163 -133l-186 -240l209 -313h-299q-33 44 -78 111q-93 -71 -176 -101t-190 -30q-143 0 -223.5 63.5t-80.5 185.5zM303 281q0 -76 96 -76q93 0 166 84q-29 40 -153 225q-49 -38 -68 -64.5t-25 -66.5l-14 -80q-2 -12 -2 -22zM434 1001q0 -9 2 -19t4 -16.5t7.5 -17.5t8 -15.5 t11.5 -18.5t12 -19l31 -49l68 49q43 31 59.5 57t24.5 70l8 47q9 51 -17.5 76.5t-79.5 25.5q-56 0 -87 -20t-40 -70l-8 -47q-4 -24 -4 -33z" />
<glyph unicode="'" horiz-adv-x="405" d="M137 840l92 524h242l-92 -524h-242z" />
<glyph unicode="(" horiz-adv-x="655" d="M111 403q0 357 128 654t382 581l186 -141q-104 -137 -175.5 -252.5t-131 -247t-88.5 -272t-29 -293.5q0 -266 123 -604l-223 -107q-90 179 -131 338.5t-41 343.5z" />
<glyph unicode=")" horiz-adv-x="657" d="M-100 -137q104 137 175.5 252.5t131 247t88.5 272t29 293.5q0 266 -123 604l223 106q90 -179 131 -338.5t41 -343.5q0 -357 -128 -654t-382 -581z" />
<glyph unicode="*" horiz-adv-x="774" d="M172 1034l25 144h182l-70 172l140 55l63 -166l121 166l104 -86l-108 -141h178l-25 -144h-186l70 -174l-138 -53l-63 162l-121 -162l-106 80l112 147h-178z" />
<glyph unicode="+" horiz-adv-x="925" d="M123 586v233h250v309h262v-309h250v-233h-250v-310h-262v310h-250z" />
<glyph unicode="," horiz-adv-x="430" d="M-45 -203l121 203h-84l55 315h270l-57 -317l-197 -274z" />
<glyph unicode="-" horiz-adv-x="612" d="M92 549l41 235h442l-40 -235h-443z" />
<glyph unicode="." horiz-adv-x="438" d="M0 0l55 315h271l-56 -315h-270z" />
<glyph unicode="/" horiz-adv-x="827" d="M-74 -240l713 1624h283l-713 -1624h-283z" />
<glyph unicode="0" horiz-adv-x="952" d="M41 262q0 38 6 76l121 684q64 367 455 367q171 0 257.5 -78t86.5 -211q0 -40 -6 -78l-121 -684q-63 -363 -457 -363q-167 0 -254.5 78t-87.5 209zM317 326q-9 -53 17.5 -83t85.5 -30q60 0 96 29.5t45 83.5l127 718q18 107 -102 107q-124 0 -142 -104z" />
<glyph unicode="1" horiz-adv-x="673" d="M92 1063l402 301h225l-240 -1364h-274l176 997l-178 -118z" />
<glyph unicode="2" horiz-adv-x="823" d="M-41 0l37 215q79 91 144.5 165.5t131 148t105.5 118.5q99 113 128.5 164.5t43.5 128.5l16 94q4 28 4 39q0 43 -27 60.5t-87 17.5q-118 0 -248 -45l-8 223q145 60 348 60q145 0 224 -62t79 -192q0 -45 -8 -91l-13 -69q-26 -147 -64.5 -229.5t-156.5 -206.5 q-135 -141 -295 -301h402l-41 -238h-715z" />
<glyph unicode="3" horiz-adv-x="802" d="M-20 31l55 221q110 -43 229 -43q82 0 117 28t47 99l18 106q5 30 5 37q0 49 -27.5 69.5t-81.5 20.5h-205l41 240h187q71 0 104.5 26.5t42.5 82.5l20 116q11 68 -22 94.5t-107 26.5q-94 0 -196 -27v220q122 41 305 41q307 0 307 -246q0 -45 -8 -86l-23 -127 q-20 -102 -60.5 -154.5t-133.5 -77.5q71 -20 103 -62.5t32 -117.5q0 -26 -8 -76l-21 -116q-15 -86 -42 -147t-75.5 -109t-125 -71.5t-183.5 -23.5q-71 0 -152.5 14.5t-141.5 41.5z" />
<glyph unicode="4" horiz-adv-x="925" d="M4 303l39 221l545 840h309l-145 -827h149l-39 -234h-151l-54 -303h-260l54 303h-447zM295 537h197l81 460z" />
<glyph unicode="5" horiz-adv-x="815" d="M6 8l45 232q105 -27 211 -27q99 0 139.5 34.5t53.5 110.5l14 84q4 28 4 39q0 51 -29.5 74t-99.5 23h-238l140 786h604l-43 -238h-328l-55 -311h27q157 0 231 -62.5t74 -199.5q0 -32 -11 -100l-18 -105q-34 -192 -140 -282.5t-304 -90.5q-174 0 -277 33z" />
<glyph unicode="6" horiz-adv-x="890" d="M43 270q0 43 8 90l115 650q36 199 144 289t319 90q152 0 274 -46l-47 -219q-105 37 -213 37q-102 0 -147 -38t-62 -136l-35 -196q76 36 183 36q125 0 194.5 -63.5t69.5 -181.5q0 -32 -8 -82l-31 -174q-32 -179 -132.5 -265t-301.5 -86q-157 0 -243.5 77t-86.5 218z M311 274q0 -73 90 -73q113 0 131 100l35 199q9 50 -11 75t-73 25q-60 0 -123 -29l-47 -268q-2 -14 -2 -29z" />
<glyph unicode="7" horiz-adv-x="798" d="M-6 0l584 1128h-412l41 236h704l-34 -199l-594 -1165h-289z" />
<glyph unicode="8" horiz-adv-x="925" d="M33 242q0 34 6 71l16 95q20 109 70.5 177.5t150.5 108.5q-102 75 -102 205q0 29 6 64l17 96q15 86 42 144t74.5 101.5t122.5 64t182 20.5q155 0 234.5 -64.5t79.5 -189.5q0 -35 -6 -76l-19 -107q-15 -85 -62 -153.5t-130 -104.5q68 -40 97.5 -92.5t29.5 -124.5 q0 -33 -6 -71l-17 -95q-31 -175 -137.5 -255.5t-312.5 -80.5q-153 0 -244.5 69.5t-91.5 197.5zM305 270q0 -82 103 -82q63 0 97 27.5t44 87.5l16 92q4 28 4 47q0 41 -21 70t-75 61q-77 -41 -106.5 -77t-40.5 -101l-17 -92q-4 -24 -4 -33zM446 913q0 -61 70 -114 q61 33 85.5 65t35.5 88l20 117q5 30 5 33q0 74 -80 74q-52 0 -76 -21.5t-33 -75.5l-22 -127q-5 -25 -5 -39z" />
<glyph unicode="9" horiz-adv-x="892" d="M45 20l47 220q105 -37 213 -37q102 0 147 38t62 136l35 196q-76 -36 -182 -36q-125 0 -195 63.5t-70 181.5q0 26 9 82l30 174q32 180 131 265.5t303 85.5q158 0 244 -77t86 -218q0 -43 -8 -90l-115 -650q-36 -199 -144 -289t-319 -90q-155 0 -274 45zM381 864 q-9 -50 11 -75t73 -25q60 0 123 29l47 268q2 14 2 29q0 73 -90 73q-113 0 -131 -100z" />
<glyph unicode=":" horiz-adv-x="456" d="M0 0l55 315h271l-56 -315h-270zM102 578l56 315h270l-55 -315h-271z" />
<glyph unicode=";" horiz-adv-x="456" d="M-37 -203l121 203h-84l55 315h271l-58 -317l-196 -274zM102 578l56 315h270l-55 -315h-271z" />
<glyph unicode="&#x3c;" horiz-adv-x="892" d="M100 573v258l676 318l86 -227l-487 -220l487 -219l-86 -227z" />
<glyph unicode="=" horiz-adv-x="978" d="M139 389v236h762v-236h-762zM139 782v234h762v-234h-762z" />
<glyph unicode="&#x3e;" horiz-adv-x="892" d="M113 483l487 219l-487 220l86 227l675 -318v-258l-675 -317z" />
<glyph unicode="?" horiz-adv-x="778" d="M102 0l56 315h270l-55 -315h-271zM201 1327q148 62 329 62q146 0 219.5 -56.5t73.5 -181.5q0 -46 -8 -100l-14 -86q-18 -101 -57.5 -167.5t-135.5 -146.5q-234 -195 -266 -221l-137 176q43 39 113.5 106.5t89.5 84.5q57 54 85.5 92t38.5 90l11 57q4 24 4 35 q0 45 -23.5 61.5t-74.5 16.5q-114 0 -234 -45z" />
<glyph unicode="@" horiz-adv-x="1339" d="M76 532q0 139 28.5 264t90 234.5t151.5 189t221 125.5t291 46q236 0 367 -125.5t131 -331.5q0 -105 -32.5 -201.5t-91 -173t-150.5 -122.5t-203 -46q-64 0 -106.5 23t-55.5 67q-78 -75 -170 -75q-57 0 -87 30.5t-30 81.5q0 36 14 74l88 248q34 97 84.5 132.5t159.5 35.5 q120 0 248 -103l-129 -362h12q117 4 182.5 107t65.5 249q0 153 -79.5 233t-235.5 80q-133 0 -240 -53t-175 -145t-104 -214t-36 -263q0 -185 92 -284t276 -99q144 0 305 49l19 -172q-141 -56 -338 -56q-143 0 -251.5 40.5t-176 115.5t-101.5 175.5t-34 225.5zM635 594 q-12 -31 22 -31q29 0 64 21l90 256q-28 14 -49 14q-19 0 -29.5 -8t-17.5 -29z" />
<glyph unicode="A" horiz-adv-x="937" d="M-86 0l543 1364h315l72 -1364h-281l2 276h-264l-92 -276h-295zM387 524h180l2 545z" />
<glyph unicode="B" horiz-adv-x="923" d="M0 0l240 1364h436q262 0 262 -205q0 -38 -8 -78l-29 -161q-15 -85 -62.5 -134.5t-142.5 -78.5q176 -29 176 -191q0 -24 -6 -61l-24 -144q-26 -146 -129 -228.5t-285 -82.5h-428zM324 233h120q101 0 117 95l27 149q2 12 2 29q0 72 -82 72h-125zM426 811h92q83 0 96 84 l27 152q4 24 4 34q0 27 -14.5 38t-44.5 11h-105z" />
<glyph unicode="C" horiz-adv-x="757" d="M20 289q0 41 9 96l106 602q24 135 72 220.5t140.5 133.5t232.5 48q142 0 270 -43l-49 -234q-95 31 -178 31q-101 0 -146 -40.5t-63 -137.5l-101 -570q-6 -34 -6 -59q0 -59 32 -87t105 -28q104 0 201 23v-228q-128 -41 -268 -41q-184 0 -270.5 84t-86.5 230z" />
<glyph unicode="D" horiz-adv-x="976" d="M0 0l240 1364h419q336 0 336 -279q0 -62 -12 -135l-98 -555q-37 -214 -143 -304.5t-316 -90.5h-426zM326 246h114q80 0 114 36.5t50 125.5l98 555q7 44 7 63q0 50 -25.5 71t-87.5 21h-117z" />
<glyph unicode="E" horiz-adv-x="837" d="M0 0l240 1364h678l-44 -246h-395l-55 -307h360l-43 -246h-360l-55 -319h397l-43 -246h-680z" />
<glyph unicode="F" horiz-adv-x="800" d="M0 0l240 1364h682l-43 -246h-400l-61 -348h364l-43 -246h-364l-92 -524h-283z" />
<glyph unicode="G" horiz-adv-x="919" d="M27 279q0 42 10 104l104 594q39 224 141.5 318t331.5 94q188 0 322 -56l-51 -235q-137 45 -256 45q-101 0 -145.5 -42.5t-63.5 -148.5l-101 -569q-6 -38 -6 -68q0 -56 29.5 -78t99.5 -22q54 0 95 14l69 439h268l-106 -625q-70 -32 -171.5 -50t-205.5 -18 q-186 0 -275 79.5t-89 224.5z" />
<glyph unicode="H" horiz-adv-x="1005" d="M0 0l240 1364h282l-98 -559h256l98 559h283l-240 -1364h-282l98 559h-256l-98 -559h-283z" />
<glyph unicode="I" horiz-adv-x="479" d="M6 0l240 1364h282l-239 -1364h-283z" />
<glyph unicode="J" horiz-adv-x="464" d="M-186 -248q14 14 40 38t35 33t27.5 27t24.5 25.5t17.5 22t15.5 23.5t10.5 23t9.5 27t6 29l240 1364h282l-241 -1364q-9 -51 -17 -84t-25.5 -67.5t-36 -59t-57 -60t-80.5 -68t-114 -85.5z" />
<glyph unicode="K" horiz-adv-x="974" d="M0 0l240 1364h282l-239 -1364h-283zM426 696l332 668h315l-358 -678l159 -686h-307z" />
<glyph unicode="L" horiz-adv-x="755" d="M0 0l240 1364h282l-196 -1118h336l-44 -246h-618z" />
<glyph unicode="M" horiz-adv-x="1396" d="M0 0l240 1364h362l55 -1067l428 1067h367l-240 -1364h-270l143 821l-335 -821h-287l-49 821l-144 -821h-270z" />
<glyph unicode="N" horiz-adv-x="1067" d="M0 0l240 1364h274l199 -778l137 778h272l-239 -1364h-277l-196 778l-138 -778h-272z" />
<glyph unicode="O" horiz-adv-x="970" d="M37 289q0 44 10 106l100 570q19 110 50.5 185t87 131t141.5 82t207 26q187 0 271.5 -83.5t84.5 -228.5q0 -54 -10 -112l-100 -570q-18 -102 -48.5 -174.5t-85.5 -130.5t-143 -86.5t-211 -28.5q-183 0 -268.5 84.5t-85.5 229.5zM317 315q0 -47 26.5 -70.5t88.5 -23.5 q76 0 111.5 37t48.5 113l110 626q7 35 7 56q0 46 -26 68t-89 22q-79 0 -113 -35t-47 -111l-110 -626q-7 -40 -7 -56z" />
<glyph unicode="P" horiz-adv-x="923" d="M0 0l240 1364h434q317 0 317 -254q0 -35 -10 -100l-31 -174q-31 -170 -129 -256t-295 -86h-157l-86 -494h-283zM412 735h127q62 0 90 26t39 87l30 174q4 24 4 33q0 39 -23 53t-73 14h-127z" />
<glyph unicode="Q" horiz-adv-x="970" d="M37 289q0 44 10 106l100 570q19 110 50.5 185t87 131t141.5 82t207 26q187 0 271.5 -83.5t84.5 -228.5q0 -54 -10 -112l-100 -570q-18 -102 -48.5 -174.5t-85.5 -130.5t-143 -86.5t-211 -28.5q-183 0 -268.5 84.5t-85.5 229.5zM178 -317l45 221q228 -3 451 -62l-53 -221 q-237 54 -443 62zM317 315q0 -47 26.5 -70.5t88.5 -23.5q76 0 111.5 37t48.5 113l110 626q7 35 7 56q0 46 -26 68t-89 22q-79 0 -113 -35t-47 -111l-110 -626q-7 -40 -7 -56z" />
<glyph unicode="R" horiz-adv-x="1005" d="M0 0l240 1364h456q160 0 239 -60t79 -192q0 -38 -10 -96l-31 -172q-11 -61 -24.5 -102t-37.5 -81.5t-63.5 -69t-97.5 -50.5l149 -541h-313l-123 498h-94l-86 -498h-283zM412 739h149q60 0 89 25t40 84l31 164q4 24 4 39q0 39 -21.5 55t-68.5 16h-156z" />
<glyph unicode="S" horiz-adv-x="800" d="M-16 33l53 237q118 -49 237 -49q89 0 129.5 38t53.5 114q8 39 8 71q0 47 -25.5 70t-97.5 51q-126 49 -174.5 112.5t-48.5 156.5q0 68 24 202q34 199 132 276t284 77q174 0 295 -50l-47 -235q-129 39 -229 39q-74 0 -108 -27t-46 -94q-10 -48 -10 -72q0 -37 28 -62.5 t109 -60.5q118 -52 163.5 -107.5t45.5 -156.5q0 -73 -21 -190q-35 -211 -139 -304.5t-307 -93.5q-143 0 -309 58z" />
<glyph unicode="T" horiz-adv-x="778" d="M117 1118l43 246h760l-43 -246h-240l-197 -1118h-282l196 1118h-237z" />
<glyph unicode="U" horiz-adv-x="989" d="M47 291q0 30 8 80l176 993h283l-178 -1004q-4 -28 -4 -45q0 -94 110 -94q74 0 108.5 31.5t45.5 95.5l178 1016h283l-178 -1004q-17 -94 -50 -163t-89.5 -120t-142 -76.5t-200.5 -25.5q-164 0 -257 87.5t-93 228.5z" />
<glyph unicode="V" horiz-adv-x="854" d="M147 1364h295l-34 -958l297 958h303l-523 -1364h-309z" />
<glyph unicode="W" horiz-adv-x="1384" d="M147 1364h283l-31 -848l310 848h256l18 -848l262 848h289l-475 -1364h-273l-30 889l-336 -889h-270z" />
<glyph unicode="X" horiz-adv-x="966" d="M-84 0l459 707l-195 657h285l102 -408l250 408h297l-450 -692l210 -672h-282l-119 401l-252 -401h-305z" />
<glyph unicode="Y" horiz-adv-x="866" d="M131 1364h307l47 -563l217 563h328l-459 -872l-86 -492h-282l88 502z" />
<glyph unicode="Z" horiz-adv-x="837" d="M6 217l563 901h-413l43 246h706v-217l-563 -901h414l-43 -246h-703z" />
<glyph unicode="[" horiz-adv-x="571" d="M-16 -262l331 1880h418l-37 -213h-147l-256 -1454h147l-39 -213h-417z" />
<glyph unicode="\" horiz-adv-x="815" d="M213 1384h266l139 -1624h-266z" />
<glyph unicode="]" horiz-adv-x="571" d="M-106 -262l36 213h146l256 1454h-146l37 213h418l-332 -1880h-415z" />
<glyph unicode="^" horiz-adv-x="894" d="M123 795l246 569h270l246 -569l-226 -84l-155 409l-156 -409z" />
<glyph unicode="_" horiz-adv-x="661" d="M-168 -420l39 215h668l-39 -215h-668z" />
<glyph unicode="`" horiz-adv-x="747" d="M317 1290l160 172q114 -123 215 -209l-131 -153q-137 89 -244 190z" />
<glyph unicode="a" d="M10 188q0 41 10 103l76 428q28 153 124 226t263 73q192 0 359 -107l-160 -911h-223l-4 92q-116 -112 -246 -112q-92 0 -145.5 54.5t-53.5 153.5zM293 301q-3 -17 -3 -31q0 -57 52 -57q56 0 113 47l90 508q-40 16 -80 16q-51 0 -73 -19.5t-30 -66.5z" />
<glyph unicode="b" horiz-adv-x="868" d="M-6 57l237 1348l279 41l-90 -514q56 40 123 63t116 23q95 0 146 -51.5t51 -151.5q0 -38 -8 -84l-72 -407q-31 -180 -131.5 -262t-294.5 -82q-83 0 -186 21t-170 56zM295 221q31 -8 82 -8q59 0 88.5 23.5t38.5 76.5l69 396q2 14 2 25q-1 22 -9 33q-14 17 -46 17 q-57 0 -133 -39z" />
<glyph unicode="c" horiz-adv-x="634" d="M10 217q0 39 10 96l68 383q29 164 120.5 243t252.5 79q109 0 211 -45l-39 -209q-78 20 -137 20q-65 0 -99.5 -24.5t-44.5 -85.5l-69 -395q-2 -10 -2 -19q0 -47 51 -47q82 0 205 39l16 -215q-59 -23 -136.5 -40t-137.5 -17q-145 0 -207 61.5t-62 175.5z" />
<glyph unicode="d" horiz-adv-x="888" d="M20 188q0 35 11 103l75 428q27 157 105.5 228t214.5 71q113 0 188 -43l76 430l279 41l-254 -1446h-223l-7 78q-51 -43 -118.5 -70.5t-135.5 -27.5q-211 0 -211 208zM303 301q-3 -16 -3 -29q0 -59 58 -59q64 0 129 43l91 510q-45 18 -99 18t-76 -19.5t-30 -66.5z" />
<glyph unicode="e" horiz-adv-x="741" d="M6 227q0 41 10 99l62 348q33 186 128.5 265t262.5 79q135 0 209 -68t74 -186q0 -126 -76 -208.5t-232 -141.5q-46 -18 -151 -54l-17 -94q-2 -9 -2 -17q0 -46 58 -46q48 0 109 21.5t157 68.5l59 -199q-188 -114 -383 -114q-131 0 -199.5 62.5t-68.5 184.5zM334 594 q26 7 59 18q57 19 84 44t27 73q0 72 -66 72q-38 0 -57 -23t-27 -67z" />
<glyph unicode="f" horiz-adv-x="589" d="M-92 -287q56 80 83.5 140.5t41.5 146.5l135 764h-94l41 233h94l33 187q24 139 91 200.5t208 61.5q109 0 202 -41l-45 -215q-64 22 -123 22q-32 0 -47.5 -13.5t-21.5 -47.5l-27 -154h176l-43 -233h-174l-135 -764q-26 -148 -72 -234t-153 -190z" />
<glyph unicode="g" horiz-adv-x="884" d="M-27 -352l54 209q156 -62 266 -62q56 0 88.5 18.5t40.5 67.5l39 225q-56 -40 -123 -63t-117 -23q-95 0 -145.5 51.5t-50.5 151.5q0 38 8 84l65 367q33 189 124.5 266.5t289.5 77.5q191 0 367 -88l-191 -1080q-49 -274 -375 -274q-153 0 -340 72zM307 330q-2 -13 -2 -23 q0 -53 55 -53q58 0 134 39l86 483q-31 8 -82 8q-59 0 -88.5 -23.5t-38.5 -76.5z" />
<glyph unicode="h" horiz-adv-x="864" d="M-10 0l246 1405l278 41l-92 -526q144 98 254 98q84 0 127 -44t43 -122q0 -24 -6 -61l-140 -791h-270l129 731q5 28 -3.5 40.5t-33.5 12.5q-55 0 -131 -39l-131 -745h-270z" />
<glyph unicode="i" horiz-adv-x="436" d="M-8 0l170 975l278 41l-178 -1016h-270zM184 1100l52 301l278 41l-51 -301z" />
<glyph unicode="j" horiz-adv-x="436" d="M-190 -250q26 24 65 59.5t50 46.5t28.5 32t23 37.5t9.5 41.5l176 1008l278 41l-186 -1063q-10 -52 -23.5 -88t-45.5 -81t-89 -94.5t-147 -113.5zM184 1100l52 301l278 41l-51 -301z" />
<glyph unicode="k" horiz-adv-x="841" d="M-10 0l248 1405l276 41l-254 -1446h-270zM362 504l263 514l274 -45l-262 -471l127 -502h-287z" />
<glyph unicode="l" horiz-adv-x="434" d="M-10 0l248 1405l276 41l-254 -1446h-270z" />
<glyph unicode="m" horiz-adv-x="1284" d="M-10 0l170 973l233 43l10 -96q152 98 263 98q127 0 159 -98q157 98 271 98q84 0 127 -44t43 -122q0 -24 -6 -61l-140 -791h-270l129 731q5 28 -3.5 40.5t-33.5 12.5q-41 0 -121 -39l-131 -745h-270l129 731q5 28 -3.5 40.5t-33.5 12.5q-45 0 -121 -39l-131 -745h-270z " />
<glyph unicode="n" horiz-adv-x="864" d="M-10 0l170 973l233 43l10 -96q62 41 136.5 69.5t136.5 28.5q84 0 127 -44t43 -122q0 -24 -6 -61l-140 -791h-270l129 731q5 28 -3.5 40.5t-33.5 12.5q-55 0 -131 -39l-131 -745h-270z" />
<glyph unicode="o" d="M12 272q0 32 8 78l56 314q33 186 130.5 270t295.5 84q156 0 239.5 -74.5t83.5 -204.5q0 -35 -6 -75l-55 -316q-16 -92 -44 -156.5t-76.5 -114t-124 -73.5t-181.5 -24q-153 0 -239.5 79t-86.5 213zM283 289q0 -76 86 -76q102 0 118 100l62 353q4 24 4 41q0 77 -86 77 q-54 0 -81 -22.5t-36 -75.5l-65 -373q-2 -12 -2 -24z" />
<glyph unicode="p" horiz-adv-x="882" d="M-88 -444l250 1417l227 35l6 -88q120 98 254 98q211 0 211 -209q0 -39 -10 -102l-76 -428q-27 -157 -105 -228t-214 -71q-114 0 -189 43l-76 -426zM303 231q45 -18 98 -18q55 0 77 19.5t30 66.5l70 397q3 16 3 29q0 59 -59 59q-64 0 -129 -43z" />
<glyph unicode="q" horiz-adv-x="884" d="M18 182q0 32 9 84l71 408q33 189 124.5 266.5t289.5 77.5q201 0 367 -88l-236 -1333l-278 -41l90 510q-56 -40 -123 -63t-117 -23q-95 0 -146 51t-51 151zM301 289q-2 -13 -2 -23q0 -53 55 -53q57 0 133 39l93 524q-31 8 -82 8q-59 0 -88.5 -23.5t-38.5 -76.5z" />
<glyph unicode="r" horiz-adv-x="544" d="M-10 0l172 975l229 41l2 -139q73 107 176 141l35 -260q-119 -35 -225 -88l-119 -670h-270z" />
<glyph unicode="s" horiz-adv-x="657" d="M-20 35l53 217q98 -45 205 -45q46 0 65.5 15t26.5 59q4 20 4 30q0 24 -15 37t-65 37q-104 49 -143 96t-39 121q0 51 16 139q27 156 106 216.5t238 60.5q120 0 242 -41l-43 -215q-110 29 -193 29q-48 0 -66 -15.5t-24 -54.5q-4 -24 -4 -35q0 -18 12.5 -29.5t49.5 -31.5 q40 -21 55 -28.5t44 -24.5t39 -26.5t26.5 -27t22 -33.5t10.5 -38.5t5 -49.5q0 -45 -12 -116q-27 -155 -106 -228t-236 -73q-148 0 -274 55z" />
<glyph unicode="t" horiz-adv-x="593" d="M51 147q0 28 8 74l97 543h-105l41 233h105l45 258l276 23l-49 -281h182l-47 -233h-178l-88 -510q-3 -22 2.5 -31.5t24.5 -9.5q34 0 118 37l33 -207q-129 -63 -272 -63q-193 0 -193 167z" />
<glyph unicode="u" horiz-adv-x="856" d="M10 145q0 24 6 62l138 780l272 17l-129 -738q-5 -28 3.5 -40.5t33.5 -12.5q47 0 123 39l129 735l272 17l-174 -1004h-231l-9 78q-146 -98 -264 -98q-84 0 -127 43.5t-43 121.5z" />
<glyph unicode="v" horiz-adv-x="776" d="M68 967l268 41l53 -721l125 428q27 100 27 157q0 42 -9 103l267 41q18 -77 18 -139q0 -79 -41 -185l-266 -692h-317z" />
<glyph unicode="w" horiz-adv-x="1153" d="M57 967l256 39q58 -283 58 -549q0 -74 -2 -113l163 389l-45 223l226 45l110 -669l68 391q8 47 8 92q0 66 -16 160l260 41q18 -73 18 -154q0 -79 -16 -139l-195 -723h-264l-84 414l-174 -414h-256q-21 326 -43.5 534.5t-71.5 432.5z" />
<glyph unicode="x" horiz-adv-x="780" d="M-82 0l332 504l-166 471l256 41l86 -297l156 278h286l-350 -510l178 -487h-266l-86 254l-147 -254h-279z" />
<glyph unicode="y" horiz-adv-x="774" d="M12 -238q96 49 143.5 96t88.5 142h-70l-104 967l272 41l47 -738l127 445q27 100 27 157q0 48 -8 103l266 41q18 -81 18 -139q0 -79 -41 -185l-266 -692q-38 -99 -68 -158t-76 -115.5t-109 -95.5t-157 -75z" />
<glyph unicode="z" horiz-adv-x="700" d="M-16 188l415 590h-313l37 219h594l4 -188l-418 -590h324l-37 -219h-598z" />
<glyph unicode="{" horiz-adv-x="628" d="M59 571l39 220h52q45 0 63.5 16t24.5 53l86 488q27 153 93.5 211.5t200.5 58.5h173l-33 -213h-72q-45 0 -65 -15.5t-29 -64.5l-76 -430q-19 -106 -67.5 -155.5t-155.5 -59.5q81 -6 117 -45t36 -111q0 -22 -6 -57l-75 -430q-1 -4 -2 -10.5t-2 -10.5t-1 -8q0 -27 16 -39 t54 -12h72l-35 -215h-139q-242 0 -242 217q0 44 8 88l78 440q4 24 4 33q0 51 -65 51h-52z" />
<glyph unicode="|" horiz-adv-x="550" d="M4 -258l332 1876h264l-332 -1876h-264z" />
<glyph unicode="}" horiz-adv-x="628" d="M-106 -258l32 213h72q45 0 65 15.5t29 64.5l76 430q19 106 67.5 155.5t155.5 59.5q-81 6 -117 45t-36 111q0 22 6 57l75 430q1 4 2 10.5t2 10.5t1 8q0 27 -16 39t-54 12h-72l35 215h139q242 0 242 -217q0 -44 -8 -88l-78 -441q-4 -24 -4 -32q0 -52 65 -52h52l-39 -219 h-51q-44 0 -63.5 -16t-25.5 -53l-86 -488q-27 -153 -93.5 -211.5t-200.5 -58.5h-172z" />
<glyph unicode="~" horiz-adv-x="882" d="M102 569q20 330 228 330q51 0 84 -10t82 -39q12 -7 29.5 -17.5t25.5 -15t19.5 -11t18.5 -9t15.5 -4.5t16.5 -2q14 0 24 6.5t15.5 14t10 25.5t6.5 28t5 34l184 -65q-2 -155 -55 -240.5t-154 -85.5q-49 0 -80.5 11t-82.5 40q-8 5 -27.5 17t-28.5 17t-24 12t-26.5 10 t-22.5 3q-16 0 -27.5 -7.5t-19.5 -25t-12 -32.5t-11 -45z" />
<glyph unicode="&#xa1;" horiz-adv-x="475" d="M-61 -403l108 608l111 346h172l-11 -346l-108 -608h-272zM129 682l55 315h271l-56 -315h-270z" />
<glyph unicode="&#xa2;" horiz-adv-x="737" d="M76 422q0 42 10 100l59 340q45 261 265 307l34 195h230l-35 -197q53 -10 109 -32l-48 -217q-82 28 -147 28q-66 0 -99.5 -22.5t-43.5 -83.5l-62 -353q-5 -29 6.5 -49t42.5 -20q82 0 205 39l16 -215q-75 -30 -161 -45l-35 -197h-229l34 197q-151 41 -151 225z" />
<glyph unicode="&#xa3;" horiz-adv-x="892" d="M-20 0l32 190q91 87 139 170t76 189h-151l41 229h155l45 256q31 179 127 267t269 88q130 0 231 -33l-39 -221q-63 18 -151 18q-75 0 -113 -32t-55 -122l-39 -221h276l-39 -229h-282q-56 -197 -189 -311h455l-41 -238h-747z" />
<glyph unicode="&#xa4;" horiz-adv-x="1017" d="M41 287l137 119q-10 45 -10 90q0 44 8 88l35 198q18 114 76 195l-94 115l188 159l106 -131q75 21 140 21q62 0 125 -17l151 129l141 -170l-135 -114q15 -47 15 -99q0 -42 -9 -88l-34 -198q-22 -118 -78 -197l98 -119l-186 -159l-113 135q-65 -19 -137 -19q-75 0 -127 17 l-152 -129zM420 514q0 -33 21 -52.5t63 -19.5q97 0 114 95l52 292q8 44 -12.5 69.5t-69.5 25.5q-98 0 -115 -95l-51 -292q-2 -12 -2 -23z" />
<glyph unicode="&#xa5;" horiz-adv-x="931" d="M43 287l37 209h237l2 6l-20 139h-193l37 209h125l-75 514h266l53 -596l219 596h287l-252 -514h125l-37 -209h-190l-70 -145h233l-36 -209h-236l-49 -287h-275l50 287h-238z" />
<glyph unicode="&#xa6;" horiz-adv-x="593" d="M164 -258v797h266v-797h-266zM164 821v797h266v-797h-266z" />
<glyph unicode="&#xa7;" horiz-adv-x="993" d="M147 782q0 162 25 299q28 162 107 235t233 73q141 0 250 -50l-47 -192q-115 39 -180 39q-98 0 -115 -94q-29 -158 -29 -336q0 -291 82 -699l-223 -57q-103 435 -103 782zM242 -334l47 193q115 -39 180 -39q98 0 115 94q28 153 28 336q0 290 -82 698l224 58 q102 -431 102 -783q0 -161 -25 -299q-28 -162 -106.5 -234.5t-232.5 -72.5q-144 0 -250 49z" />
<glyph unicode="&#xa8;" horiz-adv-x="874" d="M293 1147l47 264h209l-47 -264h-209zM590 1147l47 264h209l-47 -264h-209z" />
<glyph unicode="&#xa9;" horiz-adv-x="1603" d="M127 682q0 194 86 353.5t247.5 254t368.5 94.5q156 0 288.5 -55t222.5 -150t141 -223.5t51 -273.5q0 -144 -51 -272.5t-141 -223.5t-223 -150.5t-288 -55.5q-207 0 -368.5 95t-247.5 254t-86 353zM264 682q0 -123 38 -229.5t108.5 -185.5t178 -124t240.5 -45 q176 0 306 78t195 209t65 297t-65 297t-195 209t-306 78q-133 0 -240.5 -45t-178 -124t-108.5 -185.5t-38 -229.5zM565 604v162q0 276 285 276q103 0 190 -32l-16 -162q-73 20 -147 20q-54 0 -75.5 -24t-21.5 -76v-166q0 -52 21.5 -76t75.5 -24q74 0 147 20l16 -162 q-87 -32 -190 -32q-285 0 -285 276z" />
<glyph unicode="&#xaa;" horiz-adv-x="686" d="M168 905l51 291q19 106 76.5 149.5t177.5 43.5q118 0 232 -64l-105 -588h-145l-2 60q-72 -72 -152 -72q-77 0 -112 49.5t-21 130.5zM354 930q-9 -51 33 -51q31 0 66 28l57 320q-20 8 -45 8q-33 0 -47.5 -11t-18.5 -40z" />
<glyph unicode="&#xab;" horiz-adv-x="1069" d="M72 541l262 417l217 -135l-195 -291l117 -325l-246 -84zM512 541l262 417l217 -135l-194 -291l116 -325l-245 -84z" />
<glyph unicode="&#xac;" horiz-adv-x="976" d="M150 741v234h761v-543h-262v309h-499z" />
<glyph unicode="&#xad;" horiz-adv-x="612" d="M92 549l41 235h442l-40 -235h-443z" />
<glyph unicode="&#xae;" horiz-adv-x="864" d="M154 1055q0 158 102 264t266 106q166 0 268.5 -106t102.5 -264q0 -159 -103 -266t-268 -107q-164 0 -266 107t-102 266zM252 1055q0 -55 14.5 -104t44.5 -92t84.5 -68t126.5 -25q58 0 105 17t78 44.5t51.5 65.5t29.5 78.5t9 83.5t-9 83t-29.5 77.5t-51.5 65t-78 44 t-105 16.5t-105 -16.5t-77 -44t-50.5 -65t-29 -77.5t-8.5 -83zM393 893v340h170q96 0 96 -98v-33q0 -62 -45 -84l76 -125h-108l-64 111h-31v-111h-94zM487 1077h54q26 0 26 25v33q0 22 -26 22h-54v-80z" />
<glyph unicode="&#xaf;" horiz-adv-x="854" d="M266 1182l37 204h485l-36 -204h-486z" />
<glyph unicode="&#xb0;" horiz-adv-x="692" d="M180 1073q0 145 84 230.5t234 85.5q107 0 169 -58.5t62 -159.5q0 -139 -84 -226t-231 -87q-110 0 -172 61t-62 154zM344 1087q0 -92 88 -92q64 0 99.5 49t35.5 117q0 90 -94 90q-61 0 -95 -45.5t-34 -118.5z" />
<glyph unicode="&#xb1;" horiz-adv-x="946" d="M82 0v225h762v-225h-762zM82 627v233h250v268h262v-268h250v-233h-250v-269h-262v269h-250z" />
<glyph unicode="&#xb2;" horiz-adv-x="763" d="M125 543l29 155q56 48 128.5 113t98.5 88q50 44 69 63t36 49t24 70l6 35q7 42 -10.5 58t-65.5 16q-66 0 -168 -29l-12 180q120 43 260 43q103 0 161 -48t58 -140q0 -20 -6 -57l-8 -47q-15 -84 -43.5 -138t-99.5 -114q-27 -23 -152 -121h246l-33 -176h-518z" />
<glyph unicode="&#xb3;" horiz-adv-x="708" d="M127 557l37 162q76 -27 160 -27q90 0 102 74l6 37q7 41 -7 56t-56 15h-136l29 162h129q70 0 80 68l8 45q7 41 -8.5 54.5t-64.5 13.5q-54 0 -144 -23l8 160q85 30 199 30q124 0 181.5 -51t37.5 -162l-8 -45q-10 -59 -37 -97.5t-90 -65.5q58 -14 75.5 -54.5t6.5 -105.5 l-10 -60q-20 -109 -88 -165t-199 -56q-118 0 -211 35z" />
<glyph unicode="&#xb4;" horiz-adv-x="757" d="M313 1272q183 113 283 190l111 -186q-95 -66 -293 -176z" />
<glyph unicode="&#xb5;" horiz-adv-x="856" d="M-98 -444l252 1431l272 17l-129 -738q-5 -28 3.5 -40.5t33.5 -12.5q47 0 123 39l129 735l272 17l-174 -1004h-231l-9 78q-40 -29 -95 -54.5t-103 -35.5l-68 -391z" />
<glyph unicode="&#xb6;" horiz-adv-x="993" d="M133 799q0 271 143 418t402 147l-162 -918q-174 0 -278.5 93t-104.5 260zM301 -268q28 26 73 65.5t66.5 59.5t47.5 48.5t39 55.5t18 59l237 1344h242l-231 -1317q-10 -56 -20.5 -95t-32.5 -78t-43.5 -66.5t-68 -67.5t-89.5 -73t-123 -91z" />
<glyph unicode="&#xb7;" horiz-adv-x="440" d="M82 494l55 315h271l-56 -315h-270z" />
<glyph unicode="&#xb8;" horiz-adv-x="700" d="M57 -377l29 117q59 -23 115 -23q67 0 67 47q0 35 -47 35q-29 0 -65 -4l-35 35l59 207h125l-31 -137q76 0 110 -27t34 -88q0 -86 -58 -137t-157 -51q-76 0 -146 26z" />
<glyph unicode="&#xb9;" horiz-adv-x="643" d="M184 1178l295 186h168l-145 -821h-213l100 563l-137 -64z" />
<glyph unicode="&#xba;" horiz-adv-x="647" d="M160 899q0 17 4 41l41 234q20 110 79 162.5t187 52.5q97 0 150 -45.5t53 -124.5q0 -25 -4 -45l-41 -234q-19 -107 -84 -161t-189 -54q-93 0 -144.5 49.5t-51.5 124.5zM342 930q-9 -51 41 -51q29 0 42.5 12t18.5 39l45 254q9 51 -43 51q-28 0 -41 -11.5t-18 -37.5z" />
<glyph unicode="&#xbb;" horiz-adv-x="1069" d="M82 258l194 291l-116 325l246 84l155 -417l-262 -418zM522 258l195 291l-117 325l246 84l155 -417l-262 -418z" />
<glyph unicode="&#xbc;" horiz-adv-x="1638" d="M217 1178l295 186h168l-145 -821h-213l100 563l-137 -64zM348 -8l768 1423l154 -78l-772 -1427zM834 168l24 137l350 516h254l-88 -499h105l-27 -154h-104l-29 -168h-189l29 168h-325zM1047 322h139l55 307z" />
<glyph unicode="&#xbd;" horiz-adv-x="1687" d="M217 1178l295 186h168l-145 -821h-213l100 563l-137 -64zM348 -8l768 1423l154 -78l-772 -1427zM944 0l29 156q57 49 130 114t97 86q70 61 94.5 93.5t34.5 89.5l6 34q7 42 -10 58t-65 16q-66 0 -168 -29l-13 181q120 43 260 43q103 0 161.5 -48.5t58.5 -140.5 q0 -13 -7 -57l-8 -47q-15 -84 -43.5 -138t-99.5 -114q-27 -23 -152 -121h246l-33 -176h-518z" />
<glyph unicode="&#xbe;" horiz-adv-x="1644" d="M127 557l37 162q76 -27 160 -27q90 0 102 74l6 37q7 41 -7 56t-56 15h-136l29 162h129q70 0 80 68l8 45q7 41 -8.5 54.5t-64.5 13.5q-54 0 -144 -23l8 160q85 30 199 30q124 0 181.5 -51t37.5 -162l-8 -45q-10 -59 -37 -97.5t-90 -65.5q58 -14 75.5 -54.5t6.5 -105.5 l-10 -60q-20 -109 -88 -165t-199 -56q-118 0 -211 35zM354 -8l768 1423l154 -78l-772 -1427zM840 168l24 137l350 516h254l-88 -499h105l-27 -154h-104l-29 -168h-188l28 168h-325zM1053 322h139l55 307z" />
<glyph unicode="&#xbf;" horiz-adv-x="811" d="M-39 -186q0 46 8 100l15 86q18 101 57 167t135 146q16 13 112.5 94.5t153.5 127.5l138 -177q-44 -40 -120 -112t-83 -78q-58 -54 -87 -92t-38 -90l-10 -58q-4 -24 -4 -34q0 -45 23.5 -61.5t74.5 -16.5q113 0 233 45l15 -223q-148 -62 -330 -62q-146 0 -219.5 56.5 t-73.5 181.5zM356 682l56 315h270l-55 -315h-271z" />
<glyph unicode="&#xc0;" horiz-adv-x="937" d="M-86 0l543 1364h315l72 -1364h-281l2 276h-264l-92 -276h-295zM387 524h180l2 545zM397 1628l146 172q59 -59 223 -198l-131 -154q-152 100 -238 180z" />
<glyph unicode="&#xc1;" horiz-adv-x="937" d="M-86 0l543 1364h315l72 -1364h-281l2 276h-264l-92 -276h-295zM387 524h180l2 545zM473 1620q169 104 268 180l111 -186q-103 -71 -279 -166z" />
<glyph unicode="&#xc2;" horiz-adv-x="937" d="M-86 0l543 1364h315l72 -1364h-281l2 276h-264l-92 -276h-295zM373 1589q40 28 144 98.5t163 112.5q40 -44 227 -223l-129 -129q-94 73 -135 111q-40 -29 -176 -111zM387 524h180l2 545z" />
<glyph unicode="&#xc3;" horiz-adv-x="937" d="M-86 0l543 1364h315l72 -1364h-281l2 276h-264l-92 -276h-295zM340 1561q55 106 100.5 149t120.5 43q59 0 115 -39q8 -6 19.5 -14t16 -11t11 -7t11 -5.5t10 -2.5t12.5 -1q24 0 39 15.5t39 54.5l118 -76q-45 -94 -93.5 -143t-117.5 -49q-62 0 -114 36q-7 5 -18 12.5 t-16 10.5l-12.5 7.5t-12 6t-10 3t-11.5 1.5q-25 0 -43.5 -17t-44.5 -56zM387 524h180l2 545z" />
<glyph unicode="&#xc4;" horiz-adv-x="937" d="M-86 0l543 1364h315l72 -1364h-281l2 276h-264l-92 -276h-295zM375 1503l47 264h217l-47 -264h-217zM387 524h180l2 545zM680 1503l47 264h217l-47 -264h-217z" />
<glyph unicode="&#xc5;" horiz-adv-x="935" d="M-86 0l535 1346q-13 29 -13 63q0 97 58.5 154t154.5 57q76 0 119 -39.5t43 -107.5q0 -69 -39 -130l72 -1343h-281l2 276h-264l-92 -276h-295zM387 524h180l2 545zM557 1417q0 -53 53 -53q36 0 57 28t21 70q0 54 -51 54q-37 0 -58.5 -28t-21.5 -71z" />
<glyph unicode="&#xc6;" horiz-adv-x="1257" d="M-86 0l543 1364h880l-43 -246h-510l17 -307h403l-43 -246h-348l16 -319h314l-43 -246h-537l2 276h-264l-92 -276h-295zM387 524h180l2 545z" />
<glyph unicode="&#xc7;" horiz-adv-x="757" d="M20 289q0 41 9 96l106 602q24 135 72 220.5t140.5 133.5t232.5 48q142 0 270 -43l-49 -234q-95 31 -178 31q-101 0 -146 -40.5t-63 -137.5l-101 -570q-6 -34 -6 -59q0 -59 32 -87t105 -28q104 0 201 23v-228q-117 -35 -239 -41l-17 -75q75 0 109 -27t34 -88 q0 -86 -58 -137t-157 -51q-75 0 -145 26l29 117q59 -23 114 -23q68 0 68 47q0 35 -47 35q-30 0 -66 -4l-34 35l43 154q-259 41 -259 305z" />
<glyph unicode="&#xc8;" horiz-adv-x="837" d="M0 0l240 1364h678l-44 -246h-395l-55 -307h360l-43 -246h-360l-55 -319h397l-43 -246h-680zM385 1628l145 172q53 -53 224 -198l-131 -154q-152 100 -238 180z" />
<glyph unicode="&#xc9;" horiz-adv-x="837" d="M0 0l240 1364h678l-44 -246h-395l-55 -307h360l-43 -246h-360l-55 -319h397l-43 -246h-680zM426 1620q169 104 268 180l111 -186q-103 -71 -279 -166z" />
<glyph unicode="&#xca;" horiz-adv-x="837" d="M0 0l240 1364h678l-44 -246h-395l-55 -307h360l-43 -246h-360l-55 -319h397l-43 -246h-680zM344 1589q40 28 144 98.5t163 112.5q22 -23 49 -50.5t48 -47.5t62.5 -60t68.5 -65l-129 -129q-100 77 -136 111q-40 -29 -176 -111z" />
<glyph unicode="&#xcb;" horiz-adv-x="837" d="M0 0l240 1364h678l-44 -246h-395l-55 -307h360l-43 -246h-360l-55 -319h397l-43 -246h-680zM330 1503l47 264h217l-47 -264h-217zM635 1503l47 264h217l-47 -264h-217z" />
<glyph unicode="&#xcc;" horiz-adv-x="479" d="M6 0l240 1364h282l-239 -1364h-283zM180 1628l146 172q59 -59 223 -198l-131 -154q-152 100 -238 180z" />
<glyph unicode="&#xcd;" horiz-adv-x="479" d="M6 0l240 1364h282l-239 -1364h-283zM260 1620q169 104 268 180l111 -186q-103 -71 -279 -166z" />
<glyph unicode="&#xce;" horiz-adv-x="479" d="M6 0l240 1364h282l-239 -1364h-283zM150 1589q40 28 144 98.5t163 112.5q40 -44 227 -223l-129 -129q-94 73 -135 111q-40 -29 -176 -111z" />
<glyph unicode="&#xcf;" horiz-adv-x="479" d="M6 0l240 1364h282l-239 -1364h-283zM152 1503l47 264h217l-47 -264h-217zM457 1503l47 264h217l-47 -264h-217z" />
<glyph unicode="&#xd0;" horiz-adv-x="1013" d="M39 0l98 565h-82l41 236h82l101 563h426q169 0 249 -67.5t80 -211.5q0 -62 -12 -135l-98 -555q-37 -214 -143 -304.5t-316 -90.5h-426zM365 246h114q80 0 114 36.5t50 125.5l98 555q7 44 7 63q0 50 -25.5 71t-87.5 21h-117l-57 -317h131l-41 -236h-131z" />
<glyph unicode="&#xd1;" horiz-adv-x="1067" d="M0 0l240 1364h274l199 -778l137 778h272l-239 -1364h-277l-196 778l-138 -778h-272zM391 1561q55 106 100.5 149t120.5 43q59 0 115 -39q8 -6 19.5 -14t16 -11t11 -7t11 -5.5t10 -2.5t12.5 -1q24 0 39 15.5t39 54.5l119 -76q-45 -94 -93.5 -143t-117.5 -49q-63 0 -115 36 q-7 5 -18 12.5t-16 10.5l-12.5 7.5t-12 6t-10 3t-11.5 1.5q-25 0 -43.5 -17t-44.5 -56z" />
<glyph unicode="&#xd2;" horiz-adv-x="970" d="M37 289q0 44 10 106l100 570q19 110 50.5 185t87 131t141.5 82t207 26q187 0 271.5 -83.5t84.5 -228.5q0 -54 -10 -112l-100 -570q-18 -102 -48.5 -174.5t-85.5 -130.5t-143 -86.5t-211 -28.5q-183 0 -268.5 84.5t-85.5 229.5zM317 315q0 -47 26.5 -70.5t88.5 -23.5 q76 0 111.5 37t48.5 113l110 626q7 35 7 56q0 46 -26 68t-89 22q-79 0 -113 -35t-47 -111l-110 -626q-7 -40 -7 -56zM428 1628l145 172q53 -53 224 -198l-131 -154q-152 100 -238 180z" />
<glyph unicode="&#xd3;" horiz-adv-x="970" d="M37 289q0 44 10 106l100 570q19 110 50.5 185t87 131t141.5 82t207 26q187 0 271.5 -83.5t84.5 -228.5q0 -54 -10 -112l-100 -570q-18 -102 -48.5 -174.5t-85.5 -130.5t-143 -86.5t-211 -28.5q-183 0 -268.5 84.5t-85.5 229.5zM317 315q0 -47 26.5 -70.5t88.5 -23.5 q76 0 111.5 37t48.5 113l110 626q7 35 7 56q0 46 -26 68t-89 22q-79 0 -113 -35t-47 -111l-110 -626q-7 -40 -7 -56zM457 1620q169 104 268 180l111 -186q-103 -71 -279 -166z" />
<glyph unicode="&#xd4;" horiz-adv-x="970" d="M37 289q0 44 10 106l100 570q19 110 50.5 185t87 131t141.5 82t207 26q187 0 271.5 -83.5t84.5 -228.5q0 -54 -10 -112l-100 -570q-18 -102 -48.5 -174.5t-85.5 -130.5t-143 -86.5t-211 -28.5q-183 0 -268.5 84.5t-85.5 229.5zM317 315q0 -47 26.5 -70.5t88.5 -23.5 q76 0 111.5 37t48.5 113l110 626q7 35 7 56q0 46 -26 68t-89 22q-79 0 -113 -35t-47 -111l-110 -626q-7 -40 -7 -56zM379 1589q40 28 144 98.5t163 112.5q40 -44 227 -223l-129 -129q-94 73 -135 111q-40 -29 -176 -111z" />
<glyph unicode="&#xd5;" horiz-adv-x="970" d="M37 289q0 44 10 106l100 570q19 110 50.5 185t87 131t141.5 82t207 26q187 0 271.5 -83.5t84.5 -228.5q0 -54 -10 -112l-100 -570q-18 -102 -48.5 -174.5t-85.5 -130.5t-143 -86.5t-211 -28.5q-183 0 -268.5 84.5t-85.5 229.5zM317 315q0 -47 26.5 -70.5t88.5 -23.5 q76 0 111.5 37t48.5 113l110 626q7 35 7 56q0 46 -26 68t-89 22q-79 0 -113 -35t-47 -111l-110 -626q-7 -40 -7 -56zM350 1561q55 106 100.5 149t120.5 43q59 0 115 -39q8 -6 19.5 -14t16 -11t11 -7t11 -5.5t10 -2.5t12.5 -1q24 0 39 15.5t39 54.5l119 -76 q-45 -94 -93.5 -143t-117.5 -49q-63 0 -115 36q-7 5 -18 12.5t-16 10.5l-12.5 7.5t-12 6t-10 3t-11.5 1.5q-25 0 -43.5 -17t-44.5 -56z" />
<glyph unicode="&#xd6;" horiz-adv-x="970" d="M37 289q0 44 10 106l100 570q19 110 50.5 185t87 131t141.5 82t207 26q187 0 271.5 -83.5t84.5 -228.5q0 -54 -10 -112l-100 -570q-18 -102 -48.5 -174.5t-85.5 -130.5t-143 -86.5t-211 -28.5q-183 0 -268.5 84.5t-85.5 229.5zM317 315q0 -47 26.5 -70.5t88.5 -23.5 q76 0 111.5 37t48.5 113l110 626q7 35 7 56q0 46 -26 68t-89 22q-79 0 -113 -35t-47 -111l-110 -626q-7 -40 -7 -56zM383 1503l47 264h217l-47 -264h-217zM688 1503l47 264h217l-47 -264h-217z" />
<glyph unicode="&#xd7;" horiz-adv-x="958" d="M135 487l215 215l-215 216l166 165l215 -215l215 215l166 -165l-215 -216l215 -215l-166 -165l-215 215l-215 -215z" />
<glyph unicode="&#xd8;" horiz-adv-x="974" d="M-29 -61l111 172q-43 73 -43 178q0 44 10 106l101 570q19 110 50.5 185t87 131t141 82t206.5 26q145 0 233 -56l97 152l94 -60l-111 -172q43 -73 43 -176q0 -54 -10 -112l-100 -570q-18 -102 -48.5 -174.5t-85.5 -130.5t-143 -86.5t-211 -28.5q-141 0 -231 54l-99 -154z M324 281q15 -60 110 -60q76 0 111.5 37t48.5 113l80 454zM354 535l353 548q-15 60 -111 60q-79 0 -113 -35t-47 -111z" />
<glyph unicode="&#xd9;" horiz-adv-x="989" d="M47 291q0 30 8 80l176 993h283l-178 -1004q-4 -28 -4 -45q0 -94 110 -94q74 0 108.5 31.5t45.5 95.5l178 1016h283l-178 -1004q-17 -94 -50 -163t-89.5 -120t-142 -76.5t-200.5 -25.5q-164 0 -257 87.5t-93 228.5zM449 1628l145 172q59 -59 223 -198l-131 -154 q-149 97 -237 180z" />
<glyph unicode="&#xda;" horiz-adv-x="989" d="M47 291q0 30 8 80l176 993h283l-178 -1004q-4 -28 -4 -45q0 -94 110 -94q74 0 108.5 31.5t45.5 95.5l178 1016h283l-178 -1004q-17 -94 -50 -163t-89.5 -120t-142 -76.5t-200.5 -25.5q-164 0 -257 87.5t-93 228.5zM489 1620q174 108 269 180l110 -186q-107 -73 -278 -166 z" />
<glyph unicode="&#xdb;" horiz-adv-x="989" d="M47 291q0 30 8 80l176 993h283l-178 -1004q-4 -28 -4 -45q0 -94 110 -94q74 0 108.5 31.5t45.5 95.5l178 1016h283l-178 -1004q-17 -94 -50 -163t-89.5 -120t-142 -76.5t-200.5 -25.5q-164 0 -257 87.5t-93 228.5zM403 1589q41 29 145 99t163 112q40 -44 227 -223 l-129 -129q-94 73 -135 111q-40 -29 -176 -111z" />
<glyph unicode="&#xdc;" horiz-adv-x="989" d="M47 291q0 30 8 80l176 993h283l-178 -1004q-4 -28 -4 -45q0 -94 110 -94q74 0 108.5 31.5t45.5 95.5l178 1016h283l-178 -1004q-17 -94 -50 -163t-89.5 -120t-142 -76.5t-200.5 -25.5q-164 0 -257 87.5t-93 228.5zM403 1503l48 264h217l-47 -264h-218zM709 1503l47 264 h217l-47 -264h-217z" />
<glyph unicode="&#xdd;" horiz-adv-x="866" d="M131 1364h307l47 -563l217 563h328l-459 -872l-86 -492h-282l88 502zM414 1620q169 104 268 180l111 -186q-103 -71 -279 -166z" />
<glyph unicode="&#xde;" horiz-adv-x="919" d="M0 0l240 1364h282l-41 -229h152q317 0 317 -254q0 -36 -10 -101l-31 -174q-31 -170 -129 -256t-295 -86h-157l-45 -264h-283zM371 506h127q62 0 90 25.5t39 86.5l30 175q5 30 5 32q0 39 -24 53.5t-73 14.5h-127z" />
<glyph unicode="&#xdf;" horiz-adv-x="976" d="M-127 -287q56 80 83.5 140.5t41.5 146.5l186 1063q32 184 136 264t305 80q152 0 235.5 -71.5t83.5 -188.5q0 -85 -26.5 -150.5t-88.5 -162.5q-5 -8 -19 -28.5t-20 -29.5t-16 -25.5t-14.5 -26.5t-8 -21.5t-3.5 -20.5q0 -16 7.5 -32.5t17 -29.5t32.5 -39q2 -3 3 -4t3 -3.5 t4 -4.5q60 -71 80 -115t20 -114q0 -69 -21 -131t-61.5 -111.5t-108 -78.5t-153.5 -29q-94 0 -194 35l45 204q55 -24 133 -24q94 0 94 82q0 6 -1 11t-3.5 11t-4.5 9.5t-8 10t-9 10t-12.5 13.5t-14.5 15q-77 82 -104 128.5t-27 104.5q0 29 5 57t10.5 47.5t19.5 48t20.5 40 t26 43.5t24.5 41t22 37t24 40t19.5 37t18 41.5t10.5 38.5t5 43q0 39 -23 59.5t-63 20.5q-107 0 -127 -119l-189 -1075q-26 -148 -72 -234t-153 -190z" />
<glyph unicode="&#xe0;" d="M10 188q0 41 10 103l76 428q28 153 124 226t263 73q192 0 359 -107l-160 -911h-223l-4 92q-116 -112 -246 -112q-92 0 -145.5 54.5t-53.5 153.5zM293 301q-16 -88 49 -88q56 0 113 47l90 508q-40 16 -80 16q-51 0 -73 -19.5t-30 -66.5zM332 1290l160 172 q114 -123 215 -209l-132 -153q-133 87 -243 190z" />
<glyph unicode="&#xe1;" d="M10 188q0 41 10 103l76 428q28 153 124 226t263 73q192 0 359 -107l-160 -911h-223l-4 92q-116 -112 -246 -112q-92 0 -145.5 54.5t-53.5 153.5zM293 301q-16 -88 49 -88q56 0 113 47l90 508q-40 16 -80 16q-51 0 -73 -19.5t-30 -66.5zM332 1272q178 110 282 190 l111 -186q-95 -66 -293 -176z" />
<glyph unicode="&#xe2;" d="M10 188q0 41 10 103l76 428q28 153 124 226t263 73q192 0 359 -107l-160 -911h-223l-4 92q-116 -112 -246 -112q-92 0 -145.5 54.5t-53.5 153.5zM274 1241q13 9 127 91.5t177 129.5q55 -63 221 -233l-129 -129q-71 60 -129 121q-51 -41 -172 -121zM293 301 q-16 -88 49 -88q56 0 113 47l90 508q-40 16 -80 16q-51 0 -73 -19.5t-30 -66.5z" />
<glyph unicode="&#xe3;" d="M10 188q0 41 10 103l76 428q28 153 124 226t263 73q192 0 359 -107l-160 -911h-223l-4 92q-116 -112 -246 -112q-92 0 -145.5 54.5t-53.5 153.5zM244 1233q55 106 100.5 149t120.5 43q59 0 115 -39q8 -5 19.5 -13.5t15.5 -11t11 -7t11 -5.5t9.5 -2t12.5 -1q24 0 39.5 15 t38.5 54l119 -76q-45 -94 -93.5 -143t-117.5 -49q-62 0 -115 37q-8 5 -21 14t-18 12.5t-13.5 7.5t-14 5.5t-12.5 1.5q-25 0 -44 -17.5t-45 -56.5zM293 301q-16 -88 49 -88q56 0 113 47l90 508q-40 16 -80 16q-51 0 -73 -19.5t-30 -66.5z" />
<glyph unicode="&#xe4;" d="M10 188q0 41 10 103l76 428q28 153 124 226t263 73q192 0 359 -107l-160 -911h-223l-4 92q-116 -112 -246 -112q-92 0 -145.5 54.5t-53.5 153.5zM287 1147l47 264h209l-47 -264h-209zM293 301q-16 -88 49 -88q56 0 113 47l90 508q-40 16 -80 16q-51 0 -73 -19.5 t-30 -66.5zM584 1147l47 264h209l-47 -264h-209z" />
<glyph unicode="&#xe5;" d="M10 188q0 41 10 103l76 428q28 153 124 226t263 73q192 0 359 -107l-160 -911h-223l-4 92q-116 -112 -246 -112q-92 0 -145.5 54.5t-53.5 153.5zM293 301q-16 -88 49 -88q56 0 113 47l90 508q-40 16 -80 16q-51 0 -73 -19.5t-30 -66.5zM360 1266q0 97 58.5 154t154.5 57 q76 0 119 -40t43 -108q0 -92 -57 -152.5t-158 -60.5q-69 0 -114.5 42t-45.5 108zM481 1274q0 -53 54 -53q36 0 56.5 27.5t20.5 70.5q0 53 -51 53q-37 0 -58.5 -27.5t-21.5 -70.5z" />
<glyph unicode="&#xe6;" horiz-adv-x="1171" d="M-20 227q0 187 82 272t243 85h176l17 90q4 24 4 35q0 41 -23 58t-71 17q-59 0 -130.5 -14.5t-123.5 -36.5l-7 223q161 62 310 62q77 0 124.5 -17.5t82.5 -58.5q87 76 237 76q130 0 200 -65.5t70 -194.5q0 -138 -80 -229t-274 -136q-46 -10 -102 -20l-17 -94 q-4 -24 -4 -31q0 -45 58 -45q105 0 266 90l59 -199q-188 -114 -383 -114q-150 0 -215 83q-120 -83 -274 -83q-105 0 -165 70.5t-60 176.5zM256 266q0 -71 68 -71q57 0 110 24q-5 41 8 107l9 47h-107q-88 0 -88 -107zM754 592q39 8 77 18q93 25 93 119q0 72 -66 72 q-38 0 -57 -23t-27 -67z" />
<glyph unicode="&#xe7;" horiz-adv-x="634" d="M10 217q0 39 10 96l68 383q29 164 120.5 243t252.5 79q109 0 211 -45l-39 -209q-78 20 -137 20q-65 0 -99.5 -24.5t-44.5 -85.5l-69 -395q-11 -66 49 -66q82 0 205 39l16 -215q-102 -42 -227 -55l-19 -82q76 0 110 -27t34 -88q0 -86 -58 -137t-157 -51q-76 0 -146 26 l29 117q59 -23 114 -23q68 0 68 47q0 35 -47 35q-30 0 -66 -4l-34 35l45 156q-101 17 -145 75.5t-44 155.5z" />
<glyph unicode="&#xe8;" horiz-adv-x="741" d="M6 227q0 41 10 99l62 348q33 186 128.5 265t262.5 79q135 0 209 -68t74 -186q0 -126 -76 -208.5t-232 -141.5q-46 -18 -151 -54l-17 -94q-11 -63 56 -63q48 0 109 21.5t157 68.5l59 -199q-188 -114 -383 -114q-131 0 -199.5 62.5t-68.5 184.5zM248 1290l160 172 q114 -123 215 -209l-131 -153q-137 89 -244 190zM334 594q26 7 59 18q57 19 84 44t27 73q0 72 -66 72q-38 0 -57 -23t-27 -67z" />
<glyph unicode="&#xe9;" horiz-adv-x="741" d="M6 227q0 41 10 99l62 348q33 186 128.5 265t262.5 79q135 0 209 -68t74 -186q0 -126 -76 -208.5t-232 -141.5q-46 -18 -151 -54l-17 -94q-11 -63 56 -63q48 0 109 21.5t157 68.5l59 -199q-188 -114 -383 -114q-131 0 -199.5 62.5t-68.5 184.5zM297 1272q183 113 283 190 l110 -186q-95 -66 -293 -176zM334 594q26 7 59 18q57 19 84 44t27 73q0 72 -66 72q-38 0 -57 -23t-27 -67z" />
<glyph unicode="&#xea;" horiz-adv-x="741" d="M6 227q0 41 10 99l62 348q33 186 128.5 265t262.5 79q135 0 209 -68t74 -186q0 -126 -76 -208.5t-232 -141.5q-46 -18 -151 -54l-17 -94q-11 -63 56 -63q48 0 109 21.5t157 68.5l59 -199q-188 -114 -383 -114q-131 0 -199.5 62.5t-68.5 184.5zM238 1241q301 219 303 221 q55 -63 221 -233l-129 -129q-71 60 -129 121q-51 -41 -172 -121zM334 594q26 7 59 18q57 19 84 44t27 73q0 72 -66 72q-38 0 -57 -23t-27 -67z" />
<glyph unicode="&#xeb;" horiz-adv-x="741" d="M6 227q0 41 10 99l62 348q33 186 128.5 265t262.5 79q135 0 209 -68t74 -186q0 -126 -76 -208.5t-232 -141.5q-46 -18 -151 -54l-17 -94q-11 -63 56 -63q48 0 109 21.5t157 68.5l59 -199q-188 -114 -383 -114q-131 0 -199.5 62.5t-68.5 184.5zM240 1147l47 264h209 l-47 -264h-209zM334 594q26 7 59 18q57 19 84 44t27 73q0 72 -66 72q-38 0 -57 -23t-27 -67zM537 1147l47 264h209l-48 -264h-208z" />
<glyph unicode="&#xec;" horiz-adv-x="436" d="M-10 0l170 975l278 41l-178 -1016h-270zM96 1290l160 172q114 -123 215 -209l-131 -153q-137 89 -244 190z" />
<glyph unicode="&#xed;" horiz-adv-x="436" d="M-10 0l170 975l278 41l-178 -1016h-270zM156 1272q178 110 282 190l111 -186q-95 -66 -293 -176z" />
<glyph unicode="&#xee;" horiz-adv-x="436" d="M-10 0l170 975l278 41l-178 -1016h-270zM72 1241q301 219 303 221q55 -63 221 -233l-129 -129q-71 60 -129 121q-51 -41 -172 -121z" />
<glyph unicode="&#xef;" horiz-adv-x="436" d="M-10 0l170 975l278 41l-178 -1016h-270zM78 1147l47 264h209l-47 -264h-209zM375 1147l47 264h209l-47 -264h-209z" />
<glyph unicode="&#xf0;" horiz-adv-x="888" d="M31 260q0 36 6 76l47 270q28 155 109.5 229t224.5 74q111 0 192 -49q4 46 4 62q0 120 -57 174l-260 -125l-41 98l205 102q-81 40 -211 56l100 219q117 -9 219.5 -45.5t165.5 -93.5l183 88l43 -101l-152 -75q33 -38 53.5 -110.5t20.5 -162.5q0 -54 -11 -125l-84 -483 q-29 -170 -136 -266.5t-302 -96.5q-149 0 -234 77.5t-85 207.5zM299 279q0 -78 86 -78q59 0 88.5 27.5t38.5 84.5l61 344q-42 25 -116 25q-50 0 -73 -20t-32 -70l-49 -277q-4 -24 -4 -36z" />
<glyph unicode="&#xf1;" horiz-adv-x="866" d="M-10 0l170 973l233 43l10 -96q62 41 136.5 69.5t136.5 28.5q84 0 127 -44t43 -122q0 -24 -6 -61l-140 -791h-270l129 731q5 28 -3.5 40.5t-33.5 12.5q-55 0 -131 -39l-131 -745h-270zM252 1233q55 106 100.5 149t120.5 43q59 0 115 -39q7 -5 17 -12t14 -9.5t10.5 -7 t10 -6t8.5 -3t9.5 -2t10.5 -0.5q24 0 38.5 15t38.5 54l119 -76q-45 -94 -93.5 -143t-117.5 -49q-61 0 -114 37q-7 5 -18 12.5t-16 10.5l-12.5 7.5t-12 6t-10 3t-11.5 1.5q-25 0 -43.5 -17.5t-44.5 -56.5z" />
<glyph unicode="&#xf2;" d="M12 272q0 32 8 78l56 314q33 186 130.5 270t295.5 84q156 0 239.5 -74.5t83.5 -204.5q0 -35 -6 -75l-55 -316q-16 -92 -44 -156.5t-76.5 -114t-124 -73.5t-181.5 -24q-153 0 -239.5 79t-86.5 213zM283 289q0 -76 86 -76q102 0 118 100l62 353q4 24 4 41q0 77 -86 77 q-54 0 -81 -22.5t-36 -75.5l-65 -373q-2 -12 -2 -24zM319 1290l160 172q114 -123 215 -209l-131 -153q-137 89 -244 190z" />
<glyph unicode="&#xf3;" d="M12 272q0 32 8 78l56 314q33 186 130.5 270t295.5 84q156 0 239.5 -74.5t83.5 -204.5q0 -35 -6 -75l-55 -316q-16 -92 -44 -156.5t-76.5 -114t-124 -73.5t-181.5 -24q-153 0 -239.5 79t-86.5 213zM283 289q0 -76 86 -76q102 0 118 100l62 353q4 24 4 41q0 77 -86 77 q-54 0 -81 -22.5t-36 -75.5l-65 -373q-2 -12 -2 -24zM317 1272q183 113 283 190l111 -186q-95 -66 -293 -176z" />
<glyph unicode="&#xf4;" d="M12 272q0 32 8 78l56 314q33 186 130.5 270t295.5 84q156 0 239.5 -74.5t83.5 -204.5q0 -35 -6 -75l-55 -316q-16 -92 -44 -156.5t-76.5 -114t-124 -73.5t-181.5 -24q-153 0 -239.5 79t-86.5 213zM268 1241q301 219 303 221q47 -54 222 -233l-129 -129q-71 60 -129 121 q-46 -37 -173 -121zM283 289q0 -76 86 -76q102 0 118 100l62 353q4 24 4 41q0 77 -86 77q-54 0 -81 -22.5t-36 -75.5l-65 -373q-2 -12 -2 -24z" />
<glyph unicode="&#xf5;" d="M12 272q0 32 8 78l56 314q33 186 130.5 270t295.5 84q156 0 239.5 -74.5t83.5 -204.5q0 -35 -6 -75l-55 -316q-16 -92 -44 -156.5t-76.5 -114t-124 -73.5t-181.5 -24q-153 0 -239.5 79t-86.5 213zM236 1233q55 106 100.5 149t120.5 43q58 0 114 -39q7 -5 17 -12t14 -9.5 t10.5 -7t10 -6t8.5 -3t9.5 -2t10.5 -0.5q24 0 39.5 15t38.5 54l119 -76q-45 -94 -93.5 -143t-117.5 -49q-62 0 -115 37q-7 5 -18 12.5t-16 10.5l-12.5 7.5t-12 6t-10 3t-11.5 1.5q-25 0 -43.5 -17.5t-44.5 -56.5zM283 289q0 -76 86 -76q102 0 118 100l62 353q4 24 4 41 q0 77 -86 77q-54 0 -81 -22.5t-36 -75.5l-65 -373q-2 -12 -2 -24z" />
<glyph unicode="&#xf6;" d="M12 272q0 32 8 78l56 314q33 186 130.5 270t295.5 84q156 0 239.5 -74.5t83.5 -204.5q0 -35 -6 -75l-55 -316q-16 -92 -44 -156.5t-76.5 -114t-124 -73.5t-181.5 -24q-153 0 -239.5 79t-86.5 213zM274 1147l48 264h208l-47 -264h-209zM283 289q0 -76 86 -76 q102 0 118 100l62 353q4 24 4 41q0 77 -86 77q-54 0 -81 -22.5t-36 -75.5l-65 -373q-2 -12 -2 -24zM571 1147l47 264h209l-47 -264h-209z" />
<glyph unicode="&#xf7;" horiz-adv-x="1007" d="M143 586v233h762v-233h-762zM393 219v260h262v-260h-262zM393 926v260h262v-260h-262z" />
<glyph unicode="&#xf8;" horiz-adv-x="849" d="M-45 -47l108 145q-49 70 -49 174q0 26 9 78l55 314q33 186 130.5 270t295.5 84q126 0 211 -53l100 133l72 -58l-107 -141q47 -58 47 -160q0 -35 -6 -75l-55 -316q-16 -92 -44 -156.5t-76.5 -114t-124 -73.5t-181.5 -24q-126 0 -209 55l-104 -139zM293 250q18 -37 78 -37 q102 0 118 100l46 258zM305 420l244 323q-18 41 -80 41q-54 0 -81 -22.5t-36 -75.5z" />
<glyph unicode="&#xf9;" horiz-adv-x="856" d="M10 145q0 24 6 62l138 780l272 17l-129 -738q-5 -28 3.5 -40.5t33.5 -12.5q47 0 123 39l129 735l272 17l-174 -1004h-231l-9 78q-146 -98 -264 -98q-84 0 -127 43.5t-43 121.5zM328 1290l159 172q114 -123 215 -209l-131 -153q-133 87 -243 190z" />
<glyph unicode="&#xfa;" horiz-adv-x="856" d="M10 145q0 24 6 62l138 780l272 17l-129 -738q-5 -28 3.5 -40.5t33.5 -12.5q47 0 123 39l129 735l272 17l-174 -1004h-231l-9 78q-146 -98 -264 -98q-84 0 -127 43.5t-43 121.5zM356 1272q183 113 283 190l111 -186q-95 -66 -293 -176z" />
<glyph unicode="&#xfb;" horiz-adv-x="856" d="M10 145q0 24 6 62l138 780l272 17l-129 -738q-5 -28 3.5 -40.5t33.5 -12.5q47 0 123 39l129 735l272 17l-174 -1004h-231l-9 78q-146 -98 -264 -98q-84 0 -127 43.5t-43 121.5zM285 1241q301 219 303 221q55 -63 221 -233l-129 -129q-71 60 -129 121q-51 -41 -172 -121z " />
<glyph unicode="&#xfc;" horiz-adv-x="856" d="M10 145q0 24 6 62l138 780l272 17l-129 -738q-5 -28 3.5 -40.5t33.5 -12.5q47 0 123 39l129 735l272 17l-174 -1004h-231l-9 78q-146 -98 -264 -98q-84 0 -127 43.5t-43 121.5zM293 1147l47 264h209l-47 -264h-209zM590 1147l47 264h209l-47 -264h-209z" />
<glyph unicode="&#xfd;" horiz-adv-x="774" d="M12 -238q96 49 143.5 96t88.5 142h-70l-104 967l272 41l47 -738l127 445q27 100 27 157q0 48 -8 103l266 41q18 -81 18 -139q0 -79 -41 -185l-266 -692q-38 -99 -68 -158t-76 -115.5t-109 -95.5t-157 -75zM281 1272q178 110 282 190l111 -186q-95 -66 -293 -176z" />
<glyph unicode="&#xfe;" horiz-adv-x="882" d="M-88 -444l326 1849l276 41l-88 -504q42 35 101.5 55.5t121.5 20.5q211 0 211 -209q0 -39 -10 -102l-76 -428q-27 -157 -105 -228t-214 -71q-114 0 -189 43l-76 -426zM303 231q45 -18 98 -18q55 0 77 19.5t30 66.5l70 397q16 88 -56 88q-64 0 -129 -43z" />
<glyph unicode="&#xff;" horiz-adv-x="774" d="M12 -238q96 49 143.5 96t88.5 142h-70l-104 967l272 41l47 -738l127 445q27 100 27 157q0 48 -8 103l266 41q18 -81 18 -139q0 -79 -41 -185l-266 -692q-38 -99 -68 -158t-76 -115.5t-109 -95.5t-157 -75zM209 1147l47 264h209l-47 -264h-209zM506 1147l47 264h209 l-47 -264h-209z" />
<glyph unicode="&#x152;" horiz-adv-x="1429" d="M37 313q0 45 10 107l92 520q19 110 50.5 185t87 131t141.5 82t207 26h884l-43 -246h-407l-55 -307h372l-43 -246h-372l-56 -319h410l-43 -246h-881q-183 0 -268.5 84t-85.5 229zM317 340q0 -47 26.5 -70.5t88.5 -23.5h191l153 872h-192q-77 -1 -111 -36t-47 -109 l-102 -578q-7 -40 -7 -55z" />
<glyph unicode="&#x153;" horiz-adv-x="1224" d="M12 272q0 32 8 78l56 314q34 187 127.5 270.5t267.5 83.5q149 0 242 -90q104 90 250 90q124 0 193 -69.5t69 -184.5q0 -127 -75.5 -209t-231.5 -141q-40 -16 -152 -54l-16 -94q-11 -63 55 -63q48 0 109 21.5t157 68.5l59 -199q-184 -114 -368 -114q-64 0 -112.5 22.5 t-74.5 60.5q-119 -83 -245 -83q-156 0 -237 78t-81 214zM283 289q0 -76 86 -76q102 0 118 100l62 353q4 24 4 41q0 77 -86 77q-54 0 -81 -22.5t-36 -75.5l-65 -373q-2 -12 -2 -24zM807 594l59 18q57 19 84 44t27 73q0 72 -66 72q-38 0 -57 -23t-27 -67z" />
<glyph unicode="&#x178;" horiz-adv-x="866" d="M131 1364h307l47 -563l217 563h328l-459 -872l-86 -492h-282l88 502zM330 1503l47 264h217l-47 -264h-217zM635 1503l47 264h217l-47 -264h-217z" />
<glyph unicode="&#x2c6;" horiz-adv-x="892" d="M279 1241q301 219 303 221q55 -63 221 -233l-129 -129q-71 60 -129 121q-51 -41 -172 -121z" />
<glyph unicode="&#x2dc;" horiz-adv-x="962" d="M285 1233q55 106 100.5 149t120.5 43q59 0 115 -39q8 -5 19.5 -13.5t15.5 -11t11 -7t11 -5.5t9.5 -2t12.5 -1q24 0 39.5 15t38.5 54l119 -76q-45 -94 -93.5 -143t-117.5 -49q-62 0 -115 37q-8 5 -21 14t-18 12.5t-13.5 7.5t-14 5.5t-12.5 1.5q-25 0 -44 -17.5t-45 -56.5z " />
<glyph unicode="&#x2000;" horiz-adv-x="900" />
<glyph unicode="&#x2001;" horiz-adv-x="1800" />
<glyph unicode="&#x2002;" horiz-adv-x="900" />
<glyph unicode="&#x2003;" horiz-adv-x="1800" />
<glyph unicode="&#x2004;" horiz-adv-x="600" />
<glyph unicode="&#x2005;" horiz-adv-x="450" />
<glyph unicode="&#x2006;" horiz-adv-x="300" />
<glyph unicode="&#x2007;" horiz-adv-x="300" />
<glyph unicode="&#x2008;" horiz-adv-x="225" />
<glyph unicode="&#x2009;" horiz-adv-x="360" />
<glyph unicode="&#x200a;" horiz-adv-x="100" />
<glyph unicode="&#x2010;" horiz-adv-x="612" d="M92 549l41 235h442l-40 -235h-443z" />
<glyph unicode="&#x2011;" horiz-adv-x="612" d="M92 549l41 235h442l-40 -235h-443z" />
<glyph unicode="&#x2012;" horiz-adv-x="612" d="M92 549l41 235h442l-40 -235h-443z" />
<glyph unicode="&#x2013;" horiz-adv-x="933" d="M92 549l41 235h764l-41 -235h-764z" />
<glyph unicode="&#x2014;" horiz-adv-x="1271" d="M92 549l41 235h1102l-41 -235h-1102z" />
<glyph unicode="&#x2018;" horiz-adv-x="421" d="M111 793l55 301l199 290l108 -73l-117 -219h78l-53 -299h-270z" />
<glyph unicode="&#x2019;" horiz-adv-x="417" d="M129 846l117 219h-78l53 299h271l-56 -301l-198 -291z" />
<glyph unicode="&#x201a;" horiz-adv-x="450" d="M-31 -219l117 219h-78l53 299h271l-56 -301l-198 -291z" />
<glyph unicode="&#x201c;" horiz-adv-x="800" d="M111 793l55 301l199 290l108 -73l-117 -219h78l-53 -299h-270zM489 793l56 301l198 290l109 -73l-117 -219h78l-53 -299h-271z" />
<glyph unicode="&#x201d;" horiz-adv-x="800" d="M129 846l117 219h-78l53 299h271l-56 -301l-198 -291zM508 846l117 219h-78l53 299h270l-55 -301l-199 -291z" />
<glyph unicode="&#x201e;" horiz-adv-x="829" d="M-31 -219l117 219h-78l53 299h271l-56 -301l-198 -291zM348 -219l117 219h-78l53 299h271l-56 -301l-198 -291z" />
<glyph unicode="&#x2022;" horiz-adv-x="710" d="M123 621q0 140 77.5 223.5t219.5 83.5q101 0 160 -60.5t59 -160.5q0 -146 -81 -228t-220 -82q-96 0 -155.5 64t-59.5 160z" />
<glyph unicode="&#x2026;" horiz-adv-x="1314" d="M0 0l55 315h271l-56 -315h-270zM438 0l56 315h270l-55 -315h-271zM877 0l55 315h270l-55 -315h-270z" />
<glyph unicode="&#x202f;" horiz-adv-x="360" />
<glyph unicode="&#x2039;" horiz-adv-x="628" d="M72 541l262 417l217 -135l-195 -291l117 -325l-246 -84z" />
<glyph unicode="&#x203a;" horiz-adv-x="628" d="M82 258l194 291l-116 325l246 84l155 -417l-262 -418z" />
<glyph unicode="&#x205f;" horiz-adv-x="450" />
<glyph unicode="&#x20ac;" horiz-adv-x="917" d="M41 408l39 200h127l26 146h-131l39 200h127l6 33q38 213 137 307.5t308 94.5q157 0 260 -41l-47 -224q-91 31 -180 31q-61 0 -97.5 -9t-59.5 -34.5t-33.5 -56.5t-20.5 -90l-2 -11h321l-39 -200h-317l-27 -146h322l-39 -200h-318l-2 -13q-8 -46 -8 -71q0 -61 34.5 -88 t117.5 -27q97 0 190 22v-223q-116 -33 -258 -33q-179 0 -267.5 84.5t-88.5 229.5q0 47 8 96l4 23h-131z" />
<glyph unicode="&#x2122;" horiz-adv-x="948" d="M180 1255v109h332v-109h-104v-297h-123v297h-105zM557 958l12 406h111l94 -223l94 223h111l12 -406h-110l-4 179l-52 -127h-102l-51 127l-4 -179h-111z" />
<glyph unicode="&#xe000;" horiz-adv-x="1013" d="M0 0v1014h1014v-1014h-1014z" />
</font>
</defs>
</svg>
